<?xml version="1.0" standalone="no"?>
<!DOCTYPE svg PUBLIC "-//W3C//DTD SVG 1.1//EN" "http://www.w3.org/Graphics/SVG/1.1/DTD/svg11.dtd" >
<svg xmlns="http://www.w3.org/2000/svg" xmlns:xlink="http://www.w3.org/1999/xlink" version="1.1">
<metadata>
Created by FontForge 20201107 at Fri Sep  9 12:22:18 2022
 By Unknown
Copyright 2019 The Baloo 2 Project Authors (https://github.com/EkType/Baloo2)
</metadata>
<defs>
<font id="BalooBhaijaan2-Regular" horiz-adv-x="0" >
  <font-face 
    font-family="Baloo Bhaijaan 2"
    font-weight="400"
    font-stretch="normal"
    units-per-em="1000"
    panose-1="0 0 0 0 0 0 0 0 0 0"
    ascent="800"
    descent="-200"
    x-height="462"
    cap-height="613"
    bbox="-173 -533 1476 1017"
    underline-thickness="50"
    underline-position="-125"
    unicode-range="U+000D-FEFA"
  />
<missing-glyph horiz-adv-x="645" 
d="M159 0q-28 0 -44 16t-16 44v529q0 28 15.5 44t43.5 16h328q29 0 44.5 -16t15.5 -44v-529q0 -28 -15.5 -44t-44.5 -16h-327zM180 68h286v513h-286v-513z" />
    <glyph glyph-name="f_f" unicode="ff" horiz-adv-x="783" 
d="M142 371v65h212q3 -4 6 -12.5t3 -19.5q0 -16 -8 -24.5t-23 -8.5h-190zM156 499v-117h-79v121q0 59 21.5 95.5t62 54t96.5 17.5q57 0 89.5 -15t32.5 -37q0 -11 -4.5 -20t-12.5 -17q-18 10 -45 16.5t-52 6.5q-61 0 -85 -25t-24 -80zM77 426h80v-424q-5 -2 -15 -4.5
t-22 -2.5q-21 0 -32 8.5t-11 27.5v395zM526 371v65h212q3 -4 6 -12.5t3 -19.5q0 -16 -8 -24.5t-23 -8.5h-190zM540 499v-117h-79v121q0 59 21.5 95.5t62 54t96.5 17.5q57 0 89.5 -15t32.5 -37q0 -11 -4.5 -20t-12.5 -17q-18 10 -45 16.5t-52 6.5q-61 0 -85 -25t-24 -80z
M461 426h80v-424q-5 -2 -15 -4.5t-22 -2.5q-21 0 -32 8.5t-11 27.5v395z" />
    <glyph glyph-name="f_f_i" unicode="ffi" horiz-adv-x="1021" 
d="M142 371v65h212q3 -4 6 -12.5t3 -19.5q0 -16 -8 -24.5t-23 -8.5h-190zM156 499v-117h-79v121q0 59 21.5 95.5t62 54t96.5 17.5q57 0 89.5 -15t32.5 -37q0 -11 -4.5 -20t-12.5 -17q-18 10 -45 16.5t-52 6.5q-61 0 -85 -25t-24 -80zM77 426h80v-424q-5 -2 -15 -4.5
t-22 -2.5q-21 0 -32 8.5t-11 27.5v395zM526 371v65h212q3 -4 6 -12.5t3 -19.5q0 -16 -8 -24.5t-23 -8.5h-190zM540 499v-117h-79v121q0 59 21.5 95.5t62 54t96.5 17.5q57 0 89.5 -15t32.5 -37q0 -11 -4.5 -20t-12.5 -17q-18 10 -45 16.5t-52 6.5q-61 0 -85 -25t-24 -80z
M461 426h80v-424q-5 -2 -15 -4.5t-22 -2.5q-21 0 -32 8.5t-11 27.5v395zM848 608v0q0 21 15 35.5t37 14.5q23 0 37 -14.5t14 -35.5t-14 -35.5t-37 -14.5q-22 0 -37 14.5t-15 35.5zM860 264h80v-262q-5 -2 -15 -4.5t-22 -2.5q-21 0 -32 8.5t-11 27.5v233zM940 225h-80v235
q5 2 15.5 4.5t22.5 2.5q21 0 31.5 -8.5t10.5 -28.5v-205z" />
    <glyph glyph-name="f_f_l" unicode="ffl" horiz-adv-x="1029" 
d="M142 371v65h212q3 -4 6 -12.5t3 -19.5q0 -16 -8 -24.5t-23 -8.5h-190zM156 499v-117h-79v121q0 59 21.5 95.5t62 54t96.5 17.5q57 0 89.5 -15t32.5 -37q0 -11 -4.5 -20t-12.5 -17q-18 10 -45 16.5t-52 6.5q-61 0 -85 -25t-24 -80zM77 426h80v-424q-5 -2 -15 -4.5
t-22 -2.5q-21 0 -32 8.5t-11 27.5v395zM526 371v65h212q3 -4 6 -12.5t3 -19.5q0 -16 -8 -24.5t-23 -8.5h-190zM540 499v-117h-79v121q0 59 21.5 95.5t62 54t96.5 17.5q57 0 89.5 -15t32.5 -37q0 -11 -4.5 -20t-12.5 -17q-18 10 -45 16.5t-52 6.5q-61 0 -85 -25t-24 -80z
M461 426h80v-424q-5 -2 -15 -4.5t-22 -2.5q-21 0 -32 8.5t-11 27.5v395zM866 264l80 -12v-250q-5 -2 -15 -4.5t-22 -2.5q-21 0 -32 8.5t-11 27.5v233zM946 214l-80 11v423q5 2 15.5 4.5t21.5 2.5q22 0 32.5 -8.5t10.5 -27.5v-405z" />
    <glyph glyph-name="fi" unicode="fi" horiz-adv-x="637" 
d="M142 371v65h212q3 -4 6 -12.5t3 -19.5q0 -16 -8 -24.5t-23 -8.5h-190zM156 499v-117h-79v121q0 59 21.5 95.5t62 54t96.5 17.5q57 0 89.5 -15t32.5 -37q0 -11 -4.5 -20t-12.5 -17q-18 10 -45 16.5t-52 6.5q-61 0 -85 -25t-24 -80zM77 426h80v-424q-5 -2 -15 -4.5
t-22 -2.5q-21 0 -32 8.5t-11 27.5v395zM464 608v0q0 21 15 35.5t37 14.5q23 0 37 -14.5t14 -35.5t-14 -35.5t-37 -14.5q-22 0 -37 14.5t-15 35.5zM476 264h80v-262q-5 -2 -15 -4.5t-22 -2.5q-21 0 -32 8.5t-11 27.5v233zM556 225h-80v235q5 2 15.5 4.5t22.5 2.5
q21 0 31.5 -8.5t10.5 -28.5v-205z" />
    <glyph glyph-name="fl" unicode="fl" horiz-adv-x="645" 
d="M142 371v65h212q3 -4 6 -12.5t3 -19.5q0 -16 -8 -24.5t-23 -8.5h-190zM156 499v-117h-79v121q0 59 21.5 95.5t62 54t96.5 17.5q57 0 89.5 -15t32.5 -37q0 -11 -4.5 -20t-12.5 -17q-18 10 -45 16.5t-52 6.5q-61 0 -85 -25t-24 -80zM77 426h80v-424q-5 -2 -15 -4.5
t-22 -2.5q-21 0 -32 8.5t-11 27.5v395zM482 264l80 -12v-250q-5 -2 -15 -4.5t-22 -2.5q-21 0 -32 8.5t-11 27.5v233zM562 214l-80 11v423q5 2 15.5 4.5t21.5 2.5q22 0 32.5 -8.5t10.5 -27.5v-405z" />
    <glyph glyph-name="beh_yeh.ar" unicode="&#x628;&#x64a;" horiz-adv-x="702" arabic-form="isolated" 
d="M513 371q8 7 19 10.5t24 3.5q18 0 30 -11.5t18 -40.5q4 -18 8.5 -49t8 -66t3.5 -65q0 -24 -1.5 -40.5t-8.5 -27.5t-25 -20q-22 -11 -49.5 -11t-37.5 1l2 7q34 -2 62.5 -7t50 -16.5t33.5 -31.5t12 -52q0 -46 -25.5 -82t-70 -60.5t-100 -37t-115.5 -12.5q-95 0 -162 29
t-102 86.5t-35 142.5q0 75 20 111.5t46 36.5q12 0 21.5 -3t15.5 -8q-9 -25 -17 -56t-8 -75q0 -98 58 -141.5t162 -43.5q65 0 118.5 14.5t85.5 41.5t32 62q0 32 -23 40t-57 14q-7 2 -21 4t-27 4q-20 3 -31.5 10t-11.5 28q0 13 4.5 22.5t8.5 14.5q35 0 70 4t54 14
q0 43 -6 89.5t-15 90t-18 76.5zM614 -344q-23 0 -37 14t-14 37t14 37t37 14t37 -14t14 -37t-14 -37t-37 -14zM271 -414q-23 0 -36 13.5t-13 35.5q0 23 13 36t36 13t36 -13t13 -36q0 -22 -13 -35.5t-36 -13.5zM411 -414q-23 0 -36 13.5t-13 35.5q0 23 13 36t36 13t36 -13
t13 -36q0 -22 -13 -35.5t-36 -13.5z" />
    <glyph glyph-name="peh_yeh.ar" unicode="&#x67e;&#x64a;" horiz-adv-x="702" 
d="M513 371q8 7 19 10.5t24 3.5q18 0 30 -11.5t18 -40.5q4 -18 8.5 -49t8 -66t3.5 -65q0 -24 -1.5 -40.5t-8.5 -27.5t-25 -20q-22 -11 -49.5 -11t-37.5 1l2 7q34 -2 62.5 -7t50 -16.5t33.5 -31.5t12 -52q0 -46 -25.5 -82t-70 -60.5t-100 -37t-115.5 -12.5q-95 0 -162 29
t-102 86.5t-35 142.5q0 75 20 111.5t46 36.5q12 0 21.5 -3t15.5 -8q-9 -25 -17 -56t-8 -75q0 -98 58 -141.5t162 -43.5q65 0 118.5 14.5t85.5 41.5t32 62q0 32 -23 40t-57 14q-7 2 -21 4t-27 4q-20 3 -31.5 10t-11.5 28q0 13 4.5 22.5t8.5 14.5q35 0 70 4t54 14
q0 43 -6 89.5t-15 90t-18 76.5zM544 -341q-23 0 -36 13t-13 36t13 36t36 13t36 -13t13 -36t-13 -36t-36 -13zM684 -341q-23 0 -36 13t-13 36t13 36t36 13t36 -13t13 -36t-13 -36t-36 -13zM614 -364q22 0 35 -12.5t13 -35.5q0 -22 -13 -35t-35 -13t-35 13t-13 35
q0 23 13 35.5t35 12.5zM271 -414q-23 0 -36 13.5t-13 35.5q0 23 13 36t36 13t36 -13t13 -36q0 -22 -13 -35.5t-36 -13.5zM411 -414q-23 0 -36 13.5t-13 35.5q0 23 13 36t36 13t36 -13t13 -36q0 -22 -13 -35.5t-36 -13.5z" />
    <glyph glyph-name="teh_yeh.ar" unicode="&#x62a;&#x64a;" horiz-adv-x="702" arabic-form="isolated" 
d="M513 371q8 7 19 10.5t24 3.5q18 0 30 -11.5t18 -40.5q4 -18 8.5 -49t8 -66t3.5 -65q0 -24 -1.5 -40.5t-8.5 -27.5t-25 -20q-22 -11 -49.5 -11t-37.5 1l2 7q34 -2 62.5 -7t50 -16.5t33.5 -31.5t12 -52q0 -46 -25.5 -82t-70 -60.5t-100 -37t-115.5 -12.5q-95 0 -162 29
t-102 86.5t-35 142.5q0 75 20 111.5t46 36.5q12 0 21.5 -3t15.5 -8q-9 -25 -17 -56t-8 -75q0 -98 58 -141.5t162 -43.5q65 0 118.5 14.5t85.5 41.5t32 62q0 32 -23 40t-57 14q-7 2 -21 4t-27 4q-20 3 -31.5 10t-11.5 28q0 13 4.5 22.5t8.5 14.5q35 0 70 4t54 14
q0 43 -6 89.5t-15 90t-18 76.5zM470 462q-23 0 -36 13.5t-13 35.5q0 23 13 36t36 13t36 -13t13 -36q0 -22 -13 -35.5t-36 -13.5zM610 462q-23 0 -36 13.5t-13 35.5q0 23 13 36t36 13t36 -13t13 -36q0 -22 -13 -35.5t-36 -13.5zM271 -414q-23 0 -36 13.5t-13 35.5q0 23 13 36
t36 13t36 -13t13 -36q0 -22 -13 -35.5t-36 -13.5zM411 -414q-23 0 -36 13.5t-13 35.5q0 23 13 36t36 13t36 -13t13 -36q0 -22 -13 -35.5t-36 -13.5z" />
    <glyph glyph-name="theh_yeh.ar" unicode="&#x62b;&#x64a;" horiz-adv-x="702" arabic-form="isolated" 
d="M513 371q8 7 19 10.5t24 3.5q18 0 30 -11.5t18 -40.5q4 -18 8.5 -49t8 -66t3.5 -65q0 -24 -1.5 -40.5t-8.5 -27.5t-25 -20q-22 -11 -49.5 -11t-37.5 1l2 7q34 -2 62.5 -7t50 -16.5t33.5 -31.5t12 -52q0 -46 -25.5 -82t-70 -60.5t-100 -37t-115.5 -12.5q-95 0 -162 29
t-102 86.5t-35 142.5q0 75 20 111.5t46 36.5q12 0 21.5 -3t15.5 -8q-9 -25 -17 -56t-8 -75q0 -98 58 -141.5t162 -43.5q65 0 118.5 14.5t85.5 41.5t32 62q0 32 -23 40t-57 14q-7 2 -21 4t-27 4q-20 3 -31.5 10t-11.5 28q0 13 4.5 22.5t8.5 14.5q35 0 70 4t54 14
q0 43 -6 89.5t-15 90t-18 76.5zM271 -414q-23 0 -36 13.5t-13 35.5q0 23 13 36t36 13t36 -13t13 -36q0 -22 -13 -35.5t-36 -13.5zM411 -414q-23 0 -36 13.5t-13 35.5q0 23 13 36t36 13t36 -13t13 -36q0 -22 -13 -35.5t-36 -13.5zM540 583q-22 0 -35 13t-13 35t13 35t35 13
t35 -13t13 -35t-13 -35t-35 -13zM470 462q-23 0 -36 13.5t-13 35.5q0 23 13 36t36 13t36 -13t13 -36q0 -22 -13 -35.5t-36 -13.5zM610 462q-23 0 -36 13.5t-13 35.5q0 23 13 36t36 13t36 -13t13 -36q0 -22 -13 -35.5t-36 -13.5z" />
    <glyph glyph-name="noon_yeh.ar" unicode="&#x646;&#x64a;" horiz-adv-x="702" arabic-form="isolated" 
d="M513 371q8 7 19 10.5t24 3.5q18 0 30 -11.5t18 -40.5q4 -18 8.5 -49t8 -66t3.5 -65q0 -24 -1.5 -40.5t-8.5 -27.5t-25 -20q-22 -11 -49.5 -11t-37.5 1l2 7q34 -2 62.5 -7t50 -16.5t33.5 -31.5t12 -52q0 -46 -25.5 -82t-70 -60.5t-100 -37t-115.5 -12.5q-95 0 -162 29
t-102 86.5t-35 142.5q0 75 20 111.5t46 36.5q12 0 21.5 -3t15.5 -8q-9 -25 -17 -56t-8 -75q0 -98 58 -141.5t162 -43.5q65 0 118.5 14.5t85.5 41.5t32 62q0 32 -23 40t-57 14q-7 2 -21 4t-27 4q-20 3 -31.5 10t-11.5 28q0 13 4.5 22.5t8.5 14.5q35 0 70 4t54 14
q0 43 -6 89.5t-15 90t-18 76.5zM271 -414q-23 0 -36 13.5t-13 35.5q0 23 13 36t36 13t36 -13t13 -36q0 -22 -13 -35.5t-36 -13.5zM411 -414q-23 0 -36 13.5t-13 35.5q0 23 13 36t36 13t36 -13t13 -36q0 -22 -13 -35.5t-36 -13.5zM540 463q-23 0 -37 14t-14 37t14 37t37 14
t37 -14t14 -37t-14 -37t-37 -14z" />
    <glyph glyph-name="yehHamzaabove_yeh.ar" unicode="&#x626;&#x64a;" horiz-adv-x="702" arabic-form="isolated" 
d="M513 371q8 7 19 10.5t24 3.5q18 0 30 -11.5t18 -40.5q4 -18 8.5 -49t8 -66t3.5 -65q0 -24 -1.5 -40.5t-8.5 -27.5t-25 -20q-22 -11 -49.5 -11t-37.5 1l2 7q34 -2 62.5 -7t50 -16.5t33.5 -31.5t12 -52q0 -46 -25.5 -82t-70 -60.5t-100 -37t-115.5 -12.5q-95 0 -162 29
t-102 86.5t-35 142.5q0 75 20 111.5t46 36.5q12 0 21.5 -3t15.5 -8q-9 -25 -17 -56t-8 -75q0 -98 58 -141.5t162 -43.5q65 0 118.5 14.5t85.5 41.5t32 62q0 32 -23 40t-57 14q-7 2 -21 4t-27 4q-20 3 -31.5 10t-11.5 28q0 13 4.5 22.5t8.5 14.5q35 0 70 4t54 14
q0 43 -6 89.5t-15 90t-18 76.5zM553 654q29 0 45.5 -11t16.5 -28q0 -9 -5 -16.5t-10 -11.5q-9 7 -19 11t-25 4q-22 0 -31.5 -9t-9.5 -22q0 -14 10.5 -25t32.5 -13l-58 -11q-15 5 -26.5 19.5t-11.5 38.5q0 36 26.5 55t64.5 19zM630 551q3 -4 5.5 -13t2.5 -17t-5.5 -14
t-16.5 -9q-35 -6 -84 -14t-91 -19q-4 5 -7 12.5t-3 15.5q0 10 6.5 16.5t21.5 10.5q26 7 59.5 13t64.5 11t47 7zM271 -414q-23 0 -36 13.5t-13 35.5q0 23 13 36t36 13t36 -13t13 -36q0 -22 -13 -35.5t-36 -13.5zM411 -414q-23 0 -36 13.5t-13 35.5q0 23 13 36t36 13t36 -13
t13 -36q0 -22 -13 -35.5t-36 -13.5z" />
    <glyph glyph-name="tteh_yeh.ar" unicode="&#x679;&#x64a;" horiz-adv-x="702" 
d="M513 371q8 7 19 10.5t24 3.5q18 0 30 -11.5t18 -40.5q4 -18 8.5 -49t8 -66t3.5 -65q0 -24 -1.5 -40.5t-8.5 -27.5t-25 -20q-22 -11 -49.5 -11t-37.5 1l2 7q34 -2 62.5 -7t50 -16.5t33.5 -31.5t12 -52q0 -46 -25.5 -82t-70 -60.5t-100 -37t-115.5 -12.5q-95 0 -162 29
t-102 86.5t-35 142.5q0 75 20 111.5t46 36.5q12 0 21.5 -3t15.5 -8q-9 -25 -17 -56t-8 -75q0 -98 58 -141.5t162 -43.5q65 0 118.5 14.5t85.5 41.5t32 62q0 32 -23 40t-57 14q-7 2 -21 4t-27 4q-20 3 -31.5 10t-11.5 28q0 13 4.5 22.5t8.5 14.5q35 0 70 4t54 14
q0 43 -6 89.5t-15 90t-18 76.5zM477 515l10 -3q17 -1 28.5 -1.5t18.5 -0.5q38 0 61.5 6t23.5 21q0 16 -11 27t-29 11q-25 0 -46 -20.5t-35 -51.5l-45 4l16 34l30 15q6 29 30.5 47t56.5 18t56 -22t24 -62q0 -33 -28 -54t-106 -21q-19 0 -39.5 1t-45.5 5q-13 2 -19 8.5
t-6 18.5q0 5 1.5 11.5t4.5 13.5q12 -2 25.5 -3t23.5 -2zM485 710q10 0 17 -5t7 -17q0 -26 -0.5 -51.5t-1.5 -50t-2 -48.5l-40 -30l-6 197q7 2 13 3.5t13 1.5zM271 -414q-23 0 -36 13.5t-13 35.5q0 23 13 36t36 13t36 -13t13 -36q0 -22 -13 -35.5t-36 -13.5zM411 -414
q-23 0 -36 13.5t-13 35.5q0 23 13 36t36 13t36 -13t13 -36q0 -22 -13 -35.5t-36 -13.5z" />
    <glyph glyph-name="seen_yeh.ar" unicode="&#x633;&#x64a;" horiz-adv-x="1329" arabic-form="isolated" 
d="M888 80q33 0 51.5 21t19.5 65l2 102q4 2 15 4.5t21 2.5q16 0 24.5 -8t9.5 -23l2 -63q2 -55 24.5 -78.5t63.5 -23.5q32 0 53 16t21 26q0 32 -3.5 65.5t-9.5 66.5t-13 63t-13 55q8 5 19 9.5t24 4.5q18 0 30 -11.5t18 -40.5q4 -18 8.5 -49t8 -66t3.5 -65q0 -78 -40.5 -115.5
t-107.5 -37.5q-38 0 -66 14t-44 35.5t-21 45.5l10 -1q-2 -30 -17.5 -51t-40 -32t-53.5 -11q-46 0 -79 13t-58.5 46.5t-50.5 94.5q-20 50 -43 88.5t-56 60t-84 21.5q-44 0 -75 -16.5t-47 -41t-16 -48.5q0 -22 16 -34t49 -21l76 -20q37 -9 70 -26t53.5 -45.5t20.5 -75.5
q0 -50 -26 -89.5t-70 -67t-100 -42t-116 -14.5q-142 0 -220.5 65.5t-78.5 192.5q0 75 20 111.5t46 36.5q12 0 21.5 -3t15.5 -8q-9 -25 -17 -56t-8 -75q0 -98 58 -141.5t162 -43.5q65 0 118.5 18t85.5 48.5t32 65.5q0 36 -25 50.5t-59 24.5l-82 23q-55 15 -86 41.5t-31 83.5
q0 42 24.5 84t72 70t116.5 28q60 0 103.5 -19.5t76.5 -60t60 -104.5q24 -56 42.5 -85t39 -39.5t50.5 -10.5zM281 -394q-23 0 -36 13.5t-13 35.5q0 23 13 36t36 13t36 -13t13 -36q0 -22 -13 -35.5t-36 -13.5zM421 -394q-23 0 -36 13.5t-13 35.5q0 23 13 36t36 13t36 -13
t13 -36q0 -22 -13 -35.5t-36 -13.5z" />
    <glyph glyph-name="sheen_yeh.ar" unicode="&#x634;&#x64a;" horiz-adv-x="1329" arabic-form="isolated" 
d="M888 80q33 0 51.5 21t19.5 65l2 102q4 2 15 4.5t21 2.5q16 0 24.5 -8t9.5 -23l2 -63q2 -55 24.5 -78.5t63.5 -23.5q32 0 53 16t21 26q0 32 -3.5 65.5t-9.5 66.5t-13 63t-13 55q8 5 19 9.5t24 4.5q18 0 30 -11.5t18 -40.5q4 -18 8.5 -49t8 -66t3.5 -65q0 -78 -40.5 -115.5
t-107.5 -37.5q-38 0 -66 14t-44 35.5t-21 45.5l10 -1q-2 -30 -17.5 -51t-40 -32t-53.5 -11q-46 0 -79 13t-58.5 46.5t-50.5 94.5q-20 50 -43 88.5t-56 60t-84 21.5q-44 0 -75 -16.5t-47 -41t-16 -48.5q0 -22 16 -34t49 -21l76 -20q37 -9 70 -26t53.5 -45.5t20.5 -75.5
q0 -50 -26 -89.5t-70 -67t-100 -42t-116 -14.5q-142 0 -220.5 65.5t-78.5 192.5q0 75 20 111.5t46 36.5q12 0 21.5 -3t15.5 -8q-9 -25 -17 -56t-8 -75q0 -98 58 -141.5t162 -43.5q65 0 118.5 18t85.5 48.5t32 65.5q0 36 -25 50.5t-59 24.5l-82 23q-55 15 -86 41.5t-31 83.5
q0 42 24.5 84t72 70t116.5 28q60 0 103.5 -19.5t76.5 -60t60 -104.5q24 -56 42.5 -85t39 -39.5t50.5 -10.5zM997 472q-22 0 -35 13t-13 35t13 35t35 13t35 -13t13 -35t-13 -35t-35 -13zM927 351q-23 0 -36 13.5t-13 35.5q0 23 13 36t36 13t36 -13t13 -36q0 -22 -13 -35.5
t-36 -13.5zM1067 351q-23 0 -36 13.5t-13 35.5q0 23 13 36t36 13t36 -13t13 -36q0 -22 -13 -35.5t-36 -13.5zM281 -394q-23 0 -36 13.5t-13 35.5q0 23 13 36t36 13t36 -13t13 -36q0 -22 -13 -35.5t-36 -13.5zM421 -394q-23 0 -36 13.5t-13 35.5q0 23 13 36t36 13t36 -13
t13 -36q0 -22 -13 -35.5t-36 -13.5z" />
    <glyph glyph-name="sad_yeh.ar" unicode="&#x635;&#x64a;" horiz-adv-x="1419" arabic-form="isolated" 
d="M874 8q-43 6 -73 18t-54 41.5t-48 86.5q-21 50 -43.5 88.5t-55.5 60t-84 21.5q-44 0 -75 -16.5t-47 -41t-16 -48.5q0 -22 16 -34t49 -21l76 -20q37 -9 70 -26t53.5 -45.5t20.5 -75.5q0 -50 -26 -89.5t-70 -67t-100 -42t-116 -14.5q-142 0 -220.5 65.5t-78.5 192.5
q0 75 20 111.5t46 36.5q12 0 21.5 -3t15.5 -8q-9 -25 -17 -56t-8 -75q0 -98 58 -141.5t162 -43.5q65 0 118.5 18t85.5 48.5t32 65.5q0 36 -25 50.5t-59 24.5l-82 23q-55 15 -86 41.5t-31 83.5q0 42 24.5 84t72 70t116.5 28q60 0 103.5 -19.5t76.5 -60t60 -104.5
q18 -42 32 -66.5t28 -37t31 -17t41 -6.5q19 -3 42.5 -5t52.5 -3t63 -1q114 0 175 25.5t61 84.5q0 47 -35 76.5t-91 29.5q-27 0 -57.5 -9t-63.5 -33.5t-64.5 -70.5t-59.5 -120l-69 26q28 78 62 132.5t74 88.5t84.5 49.5t93.5 15.5q62 0 107 -22t69.5 -63.5t24.5 -99.5
q0 -94 -75 -141.5t-236 -47.5q-49 0 -94 2t-78 6zM281 -394q-23 0 -36 13.5t-13 35.5q0 23 13 36t36 13t36 -13t13 -36q0 -22 -13 -35.5t-36 -13.5zM421 -394q-23 0 -36 13.5t-13 35.5q0 23 13 36t36 13t36 -13t13 -36q0 -22 -13 -35.5t-36 -13.5z" />
    <glyph glyph-name="dad_yeh.ar" unicode="&#x636;&#x64a;" horiz-adv-x="1419" arabic-form="isolated" 
d="M874 8q-43 6 -73 18t-54 41.5t-48 86.5q-21 50 -43.5 88.5t-55.5 60t-84 21.5q-44 0 -75 -16.5t-47 -41t-16 -48.5q0 -22 16 -34t49 -21l76 -20q37 -9 70 -26t53.5 -45.5t20.5 -75.5q0 -50 -26 -89.5t-70 -67t-100 -42t-116 -14.5q-142 0 -220.5 65.5t-78.5 192.5
q0 75 20 111.5t46 36.5q12 0 21.5 -3t15.5 -8q-9 -25 -17 -56t-8 -75q0 -98 58 -141.5t162 -43.5q65 0 118.5 18t85.5 48.5t32 65.5q0 36 -25 50.5t-59 24.5l-82 23q-55 15 -86 41.5t-31 83.5q0 42 24.5 84t72 70t116.5 28q60 0 103.5 -19.5t76.5 -60t60 -104.5
q18 -42 32 -66.5t28 -37t31 -17t41 -6.5q19 -3 42.5 -5t52.5 -3t63 -1q114 0 175 25.5t61 84.5q0 47 -35 76.5t-91 29.5q-27 0 -57.5 -9t-63.5 -33.5t-64.5 -70.5t-59.5 -120l-69 26q28 78 62 132.5t74 88.5t84.5 49.5t93.5 15.5q62 0 107 -22t69.5 -63.5t24.5 -99.5
q0 -94 -75 -141.5t-236 -47.5q-49 0 -94 2t-78 6zM1126 451q-23 0 -37 14t-14 37t14 37t37 14t37 -14t14 -37t-14 -37t-37 -14zM281 -394q-23 0 -36 13.5t-13 35.5q0 23 13 36t36 13t36 -13t13 -36q0 -22 -13 -35.5t-36 -13.5zM421 -394q-23 0 -36 13.5t-13 35.5q0 23 13 36
t36 13t36 -13t13 -36q0 -22 -13 -35.5t-36 -13.5z" />
    <glyph glyph-name="tah_yeh.ar" unicode="&#x637;&#x64a;" horiz-adv-x="1226" arabic-form="isolated" 
d="M659 665q5 2 17 4.5t25 2.5q17 0 26.5 -8.5t9.5 -25.5l-3 -471l-70 -88zM429 98q41 -5 83.5 -9.5t87 -6.5t92.5 -2l8 -1h71h82q114 0 175 25.5t61 84.5q0 47 -34 76.5t-87 29.5q-27 0 -57.5 -9t-63.5 -33.5t-64.5 -70.5t-59.5 -120l-80 5l29 59l46 80q39 81 104.5 124.5
t149.5 43.5q58 0 101 -23t67 -64.5t24 -97.5q0 -94 -75 -141.5t-236 -47.5q-44 0 -92 1t-84.5 3.5t-48.5 6.5l-80 45q35 -16 60.5 -27t39.5 -26.5t14 -44.5q0 -46 -25.5 -82.5t-70 -61.5t-100 -38t-115.5 -13q-95 0 -162 29t-102 86.5t-35 142.5q0 75 20 111.5t46 36.5
q12 0 21.5 -3t15.5 -8q-9 -25 -17 -56t-8 -75q0 -98 58 -141.5t162 -43.5q65 0 118.5 14.5t85.5 41.5t32 62q0 29 -21.5 39t-63.5 16l-20 3q-40 6 -53 13t-13 29q0 12 5 23t9 15zM281 -414q-23 0 -36 13.5t-13 35.5q0 23 13 36t36 13t36 -13t13 -36q0 -22 -13 -35.5
t-36 -13.5zM421 -414q-23 0 -36 13.5t-13 35.5q0 23 13 36t36 13t36 -13t13 -36q0 -22 -13 -35.5t-36 -13.5z" />
    <glyph glyph-name="zah_yeh.ar" unicode="&#x638;&#x64a;" horiz-adv-x="1226" 
d="M659 665q5 2 17 4.5t25 2.5q17 0 26.5 -8.5t9.5 -25.5l-3 -471l-70 -88zM429 98q41 -5 83.5 -9.5t87 -6.5t92.5 -2l8 -1h71h82q114 0 175 25.5t61 84.5q0 47 -34 76.5t-87 29.5q-27 0 -57.5 -9t-63.5 -33.5t-64.5 -70.5t-59.5 -120l-80 5l29 59l46 80q39 81 104.5 124.5
t149.5 43.5q58 0 101 -23t67 -64.5t24 -97.5q0 -94 -75 -141.5t-236 -47.5q-44 0 -92 1t-84.5 3.5t-48.5 6.5l-80 45q35 -16 60.5 -27t39.5 -26.5t14 -44.5q0 -46 -25.5 -82.5t-70 -61.5t-100 -38t-115.5 -13q-95 0 -162 29t-102 86.5t-35 142.5q0 75 20 111.5t46 36.5
q12 0 21.5 -3t15.5 -8q-9 -25 -17 -56t-8 -75q0 -98 58 -141.5t162 -43.5q65 0 118.5 14.5t85.5 41.5t32 62q0 29 -21.5 39t-63.5 16l-20 3q-40 6 -53 13t-13 29q0 12 5 23t9 15zM943 451q-23 0 -37 14t-14 37t14 37t37 14t37 -14t14 -37t-14 -37t-37 -14zM281 -414
q-23 0 -36 13.5t-13 35.5q0 23 13 36t36 13t36 -13t13 -36q0 -22 -13 -35.5t-36 -13.5zM421 -414q-23 0 -36 13.5t-13 35.5q0 23 13 36t36 13t36 -13t13 -36q0 -22 -13 -35.5t-36 -13.5z" />
    <glyph glyph-name="qaf_yeh.ar" unicode="&#x642;&#x64a;" horiz-adv-x="714" arabic-form="isolated" 
d="M453 518q66 0 105 -36t56.5 -98t17.5 -142q0 -56 -4 -92t-17 -57.5t-39 -32t-70 -15.5l2 17q34 -2 62.5 -7t50 -16.5t33.5 -31.5t12 -52q0 -46 -25.5 -82t-70 -60.5t-100 -37t-115.5 -12.5q-95 0 -162 29t-102 86.5t-35 142.5q0 75 20 111.5t46 36.5q12 0 21.5 -3
t15.5 -8q-9 -25 -17 -56t-8 -75q0 -98 58 -141.5t162 -43.5q65 0 118.5 14.5t85.5 41.5t32 62q0 32 -23 40t-57 14q-7 2 -21 4t-27 4q-20 3 -31.5 10t-11.5 28q0 13 4.5 22.5t8.5 14.5q35 0 70 4t54 14q3 21 6 55.5t2 56.5l17 -21q-19 -7 -48 -12t-55 -5q-88 0 -135 41
t-47 116q0 50 21.5 89t58 61t81.5 22zM452 440q-37 0 -61 -27t-24 -65q0 -40 28.5 -60.5t83.5 -20.5q21 0 43 2.5t39 7.5q-8 86 -35 124.5t-74 38.5zM383 594q-23 0 -36 13.5t-13 35.5q0 23 13 36t36 13t36 -13t13 -36q0 -22 -13 -35.5t-36 -13.5zM523 594q-23 0 -36 13.5
t-13 35.5q0 23 13 36t36 13t36 -13t13 -36q0 -22 -13 -35.5t-36 -13.5zM281 -414q-23 0 -36 13.5t-13 35.5q0 23 13 36t36 13t36 -13t13 -36q0 -22 -13 -35.5t-36 -13.5zM421 -414q-23 0 -36 13.5t-13 35.5q0 23 13 36t36 13t36 -13t13 -36q0 -22 -13 -35.5t-36 -13.5z" />
    <glyph glyph-name="feh_yeh.ar" unicode="&#x641;&#x64a;" horiz-adv-x="714" arabic-form="isolated" 
d="M453 518q66 0 105 -36t56.5 -98t17.5 -142q0 -56 -4 -92t-17 -57.5t-39 -32t-70 -15.5l2 17q34 -2 62.5 -7t50 -16.5t33.5 -31.5t12 -52q0 -46 -25.5 -82t-70 -60.5t-100 -37t-115.5 -12.5q-95 0 -162 29t-102 86.5t-35 142.5q0 75 20 111.5t46 36.5q12 0 21.5 -3
t15.5 -8q-9 -25 -17 -56t-8 -75q0 -98 58 -141.5t162 -43.5q65 0 118.5 14.5t85.5 41.5t32 62q0 32 -23 40t-57 14q-7 2 -21 4t-27 4q-20 3 -31.5 10t-11.5 28q0 13 4.5 22.5t8.5 14.5q35 0 70 4t54 14q3 21 6 55.5t2 56.5l17 -21q-19 -7 -48 -12t-55 -5q-88 0 -135 41
t-47 116q0 50 21.5 89t58 61t81.5 22zM452 440q-37 0 -61 -27t-24 -65q0 -40 28.5 -60.5t83.5 -20.5q21 0 43 2.5t39 7.5q-8 86 -35 124.5t-74 38.5zM453 595q-23 0 -37 14t-14 37t14 37t37 14t37 -14t14 -37t-14 -37t-37 -14zM281 -414q-23 0 -36 13.5t-13 35.5q0 23 13 36
t36 13t36 -13t13 -36q0 -22 -13 -35.5t-36 -13.5zM421 -414q-23 0 -36 13.5t-13 35.5q0 23 13 36t36 13t36 -13t13 -36q0 -22 -13 -35.5t-36 -13.5z" />
    <glyph glyph-name="veh_yeh.ar" unicode="&#x6a4;&#x64a;" horiz-adv-x="714" 
d="M453 518q66 0 105 -36t56.5 -98t17.5 -142q0 -56 -4 -92t-17 -57.5t-39 -32t-70 -15.5l2 17q34 -2 62.5 -7t50 -16.5t33.5 -31.5t12 -52q0 -46 -25.5 -82t-70 -60.5t-100 -37t-115.5 -12.5q-95 0 -162 29t-102 86.5t-35 142.5q0 75 20 111.5t46 36.5q12 0 21.5 -3
t15.5 -8q-9 -25 -17 -56t-8 -75q0 -98 58 -141.5t162 -43.5q65 0 118.5 14.5t85.5 41.5t32 62q0 32 -23 40t-57 14q-7 2 -21 4t-27 4q-20 3 -31.5 10t-11.5 28q0 13 4.5 22.5t8.5 14.5q35 0 70 4t54 14q3 21 6 55.5t2 56.5l17 -21q-19 -7 -48 -12t-55 -5q-88 0 -135 41
t-47 116q0 50 21.5 89t58 61t81.5 22zM452 440q-37 0 -61 -27t-24 -65q0 -40 28.5 -60.5t83.5 -20.5q21 0 43 2.5t39 7.5q-8 86 -35 124.5t-74 38.5zM453 715q-22 0 -35 13t-13 35t13 35t35 13t35 -13t13 -35t-13 -35t-35 -13zM383 594q-23 0 -36 13.5t-13 35.5q0 23 13 36
t36 13t36 -13t13 -36q0 -22 -13 -35.5t-36 -13.5zM523 594q-23 0 -36 13.5t-13 35.5q0 23 13 36t36 13t36 -13t13 -36q0 -22 -13 -35.5t-36 -13.5zM281 -414q-23 0 -36 13.5t-13 35.5q0 23 13 36t36 13t36 -13t13 -36q0 -22 -13 -35.5t-36 -13.5zM421 -414q-23 0 -36 13.5
t-13 35.5q0 23 13 36t36 13t36 -13t13 -36q0 -22 -13 -35.5t-36 -13.5z" />
    <glyph glyph-name="uni05DB_yeh.ar" unicode="&#x643;&#x64a;" horiz-adv-x="790" 
d="M761 666q13 0 22.5 -5.5t16 -17t8.5 -29.5l-363 -175l10 34q20 -18 48.5 -46t58.5 -62.5t56 -72t42 -74.5t16 -70q0 -25 -17 -43t-43.5 -29.5t-56.5 -17t-57 -5.5l2 11q34 -2 62.5 -7.5t50 -17t33.5 -32t12 -52.5q0 -46 -25.5 -82t-70 -60.5t-100 -37t-115.5 -12.5
q-95 0 -162 29t-102 86.5t-35 142.5q0 75 20 111.5t46 36.5q12 0 21.5 -3t15.5 -8q-9 -25 -17 -56t-8 -75q0 -98 58 -141.5t162 -43.5q65 0 118.5 14.5t85.5 41.5t32 62q0 32 -23 40t-57 14q-7 2 -21 4t-27 4q-20 3 -31.5 10t-11.5 28q0 13 4.5 22.5t8.5 14.5q49 1 89 10
t63.5 20.5t23.5 21.5q0 23 -15 52t-39 61t-51.5 62.5t-53 56t-43.5 41.5q-3 10 -4 19.5t-1 18.5q0 8 1.5 17.5t4.5 19.5l326 160q8 4 16.5 6.5t15.5 2.5zM281 -414q-23 0 -36 13.5t-13 35.5q0 23 13 36t36 13t36 -13t13 -36q0 -22 -13 -35.5t-36 -13.5zM421 -414
q-23 0 -36 13.5t-13 35.5q0 23 13 36t36 13t36 -13t13 -36q0 -22 -13 -35.5t-36 -13.5z" />
    <glyph glyph-name="gaf_yeh.ar" unicode="&#x6af;&#x64a;" horiz-adv-x="790" 
d="M761 666q13 0 22.5 -5.5t16 -17t8.5 -29.5l-363 -175l10 34q20 -18 48.5 -46t58.5 -62.5t56 -72t42 -74.5t16 -70q0 -25 -17 -43t-43.5 -29.5t-56.5 -17t-57 -5.5l2 11q34 -2 62.5 -7.5t50 -17t33.5 -32t12 -52.5q0 -46 -25.5 -82t-70 -60.5t-100 -37t-115.5 -12.5
q-95 0 -162 29t-102 86.5t-35 142.5q0 75 20 111.5t46 36.5q12 0 21.5 -3t15.5 -8q-9 -25 -17 -56t-8 -75q0 -98 58 -141.5t162 -43.5q65 0 118.5 14.5t85.5 41.5t32 62q0 32 -23 40t-57 14q-7 2 -21 4t-27 4q-20 3 -31.5 10t-11.5 28q0 13 4.5 22.5t8.5 14.5q49 1 89 10
t63.5 20.5t23.5 21.5q0 23 -15 52t-39 61t-51.5 62.5t-53 56t-43.5 41.5q-3 10 -4 19.5t-1 18.5q0 8 1.5 17.5t4.5 19.5l326 160q8 4 16.5 6.5t15.5 2.5zM742 747l-262 -128q-8 -4 -14 -5.5t-12 -1.5q-16 0 -24.5 11t-8.5 30l257 127q20 9 32 9q13 0 22 -10.5t10 -31.5z
M281 -414q-23 0 -36 13.5t-13 35.5q0 23 13 36t36 13t36 -13t13 -36q0 -22 -13 -35.5t-36 -13.5zM421 -414q-23 0 -36 13.5t-13 35.5q0 23 13 36t36 13t36 -13t13 -36q0 -22 -13 -35.5t-36 -13.5z" />
    <glyph glyph-name="keheh_yeh.ar" unicode="&#x6a9;&#x64a;" horiz-adv-x="790" 
d="M761 666q13 0 22.5 -5.5t16 -17t8.5 -29.5l-363 -175l10 34q20 -18 48.5 -46t58.5 -62.5t56 -72t42 -74.5t16 -70q0 -25 -17 -43t-43.5 -29.5t-56.5 -17t-57 -5.5l2 11q34 -2 62.5 -7.5t50 -17t33.5 -32t12 -52.5q0 -46 -25.5 -82t-70 -60.5t-100 -37t-115.5 -12.5
q-95 0 -162 29t-102 86.5t-35 142.5q0 75 20 111.5t46 36.5q12 0 21.5 -3t15.5 -8q-9 -25 -17 -56t-8 -75q0 -98 58 -141.5t162 -43.5q65 0 118.5 14.5t85.5 41.5t32 62q0 32 -23 40t-57 14q-7 2 -21 4t-27 4q-20 3 -31.5 10t-11.5 28q0 13 4.5 22.5t8.5 14.5q49 1 89 10
t63.5 20.5t23.5 21.5q0 23 -15 52t-39 61t-51.5 62.5t-53 56t-43.5 41.5q-3 10 -4 19.5t-1 18.5q0 8 1.5 17.5t4.5 19.5l326 160q8 4 16.5 6.5t15.5 2.5zM281 -414q-23 0 -36 13.5t-13 35.5q0 23 13 36t36 13t36 -13t13 -36q0 -22 -13 -35.5t-36 -13.5zM421 -414
q-23 0 -36 13.5t-13 35.5q0 23 13 36t36 13t36 -13t13 -36q0 -22 -13 -35.5t-36 -13.5z" />
    <glyph glyph-name="lam_yeh.ar" unicode="&#x644;&#x64a;" horiz-adv-x="714" arabic-form="isolated" 
d="M428 97h47q37 0 57 17t20 60l-4 491q5 2 17 4.5t26 2.5q18 0 27 -8.5t9 -26.5l-1 -464q0 -64 -28.5 -92t-88.5 -28l-5 9q34 -2 62.5 -7t50 -16.5t33.5 -31.5t12 -52q0 -46 -25.5 -82t-70 -60.5t-100 -37t-115.5 -12.5q-95 0 -162 29t-102 86.5t-35 142.5q0 75 20 111.5
t46 36.5q12 0 21.5 -3t15.5 -8q-9 -25 -17 -56t-8 -75q0 -98 58 -141.5t162 -43.5q65 0 118.5 14.5t85.5 41.5t32 62q0 32 -23 40t-57 14q-7 2 -21 4t-27 4q-20 3 -31.5 10t-11.5 28q0 13 4.5 22.5t8.5 14.5zM281 -414q-23 0 -36 13.5t-13 35.5q0 23 13 36t36 13t36 -13
t13 -36q0 -22 -13 -35.5t-36 -13.5zM421 -414q-23 0 -36 13.5t-13 35.5q0 23 13 36t36 13t36 -13t13 -36q0 -22 -13 -35.5t-36 -13.5z" />
    <glyph glyph-name="uni05D0.ar.fina" unicode="&#x627;" horiz-adv-x="250" arabic-form="final" 
d="M163 638l-1 -492q0 -37 20 -51.5t57 -14.5h19v-81l-26 1q-39 2 -71.5 15t-52 44t-20.5 84l-4 522q5 2 16.5 4.5t23.5 2.5q20 0 29.5 -8.5t9.5 -25.5zM258 -1v80q4 -6 7 -16t3 -24t-3.5 -24.5t-6.5 -15.5z" />
    <glyph glyph-name="alefHamzaabove.ar.fina" unicode="&#x623;" horiz-adv-x="250" arabic-form="final" 
d="M163 638l-1 -492q0 -37 20 -51.5t57 -14.5h19v-81l-26 1q-39 2 -71.5 15t-52 44t-20.5 84l-4 522q5 2 16.5 4.5t23.5 2.5q20 0 29.5 -8.5t9.5 -25.5zM258 -1v80q4 -6 7 -16t3 -24t-3.5 -24.5t-6.5 -15.5zM137 920q29 0 45.5 -11t16.5 -28q0 -9 -5 -16.5t-10 -11.5
q-9 7 -19 11t-25 4q-22 0 -31.5 -9t-9.5 -22q0 -14 10.5 -25t32.5 -13l-58 -11q-15 5 -26.5 19.5t-11.5 38.5q0 36 26.5 55t64.5 19zM214 817q3 -4 5.5 -13t2.5 -17t-5.5 -14t-16.5 -9q-35 -6 -84 -14t-91 -19q-4 5 -7 12.5t-3 15.5q0 10 6.5 16.5t21.5 10.5q26 7 59.5 13
t64.5 11t47 7z" />
    <glyph glyph-name="alefHamzabelow.ar.fina" unicode="&#x625;" horiz-adv-x="250" arabic-form="final" 
d="M163 638l-1 -492q0 -37 20 -51.5t57 -14.5h19v-81l-26 1q-39 2 -71.5 15t-52 44t-20.5 84l-4 522q5 2 16.5 4.5t23.5 2.5q20 0 29.5 -8.5t9.5 -25.5zM258 -1v80q4 -6 7 -16t3 -24t-3.5 -24.5t-6.5 -15.5zM136 -81q29 0 45.5 -11t16.5 -28q0 -9 -5 -16.5t-10 -11.5
q-9 7 -19 11t-25 4q-22 0 -31.5 -9t-9.5 -22q0 -14 10.5 -25t32.5 -13l-58 -11q-15 5 -26.5 19.5t-11.5 38.5q0 36 26.5 55t64.5 19zM213 -184q3 -4 5.5 -13t2.5 -17t-5.5 -14t-16.5 -9q-35 -6 -84 -14t-91 -19q-4 5 -7 12.5t-3 15.5q0 10 6.5 16.5t21.5 10.5q26 7 59.5 13
t64.5 11t47 7z" />
    <glyph glyph-name="alefMadda.ar.fina" unicode="&#x622;" horiz-adv-x="250" arabic-form="final" 
d="M163 638l-1 -492q0 -37 20 -51.5t57 -14.5h19v-81l-26 1q-39 2 -71.5 15t-52 44t-20.5 84l-4 522q5 2 16.5 4.5t23.5 2.5q20 0 29.5 -8.5t9.5 -25.5zM258 -1v80q4 -6 7 -16t3 -24t-3.5 -24.5t-6.5 -15.5zM41 716q-47 0 -47 36q0 29 21 45.5t60 16.5q20 0 44 -4t40 -4
q20 0 31 7.5t14 26.5q18 0 28.5 -7t10.5 -21q0 -22 -17 -40t-55 -18q-14 0 -29 2t-29 4t-24 2q-24 0 -35.5 -10t-12.5 -36z" />
    <glyph glyph-name="alefWasla.ar.fina" unicode="&#x671;" horiz-adv-x="250" arabic-form="final" 
d="M163 638l-1 -492q0 -37 20 -51.5t57 -14.5h19v-81l-26 1q-39 2 -71.5 15t-52 44t-20.5 84l-4 522q5 2 16.5 4.5t23.5 2.5q20 0 29.5 -8.5t9.5 -25.5zM258 -1v80q4 -6 7 -16t3 -24t-3.5 -24.5t-6.5 -15.5zM181 899q38 0 60 -21.5t22 -57.5q0 -34 -22 -55t-65 -21
q-40 0 -65 4.5t-52 4.5q-13 0 -25 -5.5t-18 -13.5q-11 4 -17.5 12t-6.5 18q0 16 16.5 27t50.5 11q36 0 60 -5.5t56 -5.5q20 0 29 7.5t9 21.5q0 15 -9.5 24t-25.5 9q-23 0 -39 -16t-25 -55l-47 6q9 58 39.5 84.5t74.5 26.5z" />
    <glyph glyph-name="behDotless.ar.init" unicode="&#x6ee;" horiz-adv-x="299" 
d="M-8 0v80h16q31 0 62.5 5t56.5 13t38 17q0 43 -6 89.5t-15 90t-18 76.5q8 5 19 9.5t24 4.5q18 0 30 -11.5t18 -40.5q4 -18 8.5 -49t8 -66t3.5 -65q0 -46 -8 -70t-37 -42q-30 -19 -80.5 -30t-103.5 -11h-16z" />
    <glyph glyph-name="behDotless.ar.medi" unicode="&#x6ee;" horiz-adv-x="301" 
d="M-8 0v80h16q53 0 79 23t27 73l2 122q4 2 14 5t21 3q16 0 25 -8.5t9 -23.5l2 -103q1 -46 27.5 -68.5t78.5 -22.5h16v-80h-18q-36 0 -65 10t-48.5 30t-28.5 50h5q-3 -29 -24.5 -49t-53.5 -30.5t-67 -10.5h-17zM309 0v80q4 -6 7 -16t3 -24t-3.5 -24.5t-6.5 -15.5z" />
    <glyph glyph-name="behDotless.ar.fina" unicode="&#x6ee;" horiz-adv-x="901" 
d="M417 -16q-129 0 -207 29.5t-113 83.5t-35 128q0 65 15 92.5t40 27.5q12 0 21 -2.5t15 -6.5q-5 -24 -9 -44.5t-4 -48.5q0 -63 30 -103t93.5 -58.5t162.5 -18.5q79 0 140 13t102.5 31.5t59.5 34.5l-16 -54l4 210q4 2 14 5t20 3q17 0 26 -8.5t9 -23.5l2 -103q1 -46 27 -68.5
t86 -22.5h9v-80h-11q-73 0 -115.5 24t-50.5 73l27 -20q-28 -22 -76 -43.5t-115 -35.5t-151 -14zM909 0v80q4 -6 7 -16t3 -24t-3.5 -24.5t-6.5 -15.5z" />
    <glyph glyph-name="beh.ar.init" unicode="&#x628;" horiz-adv-x="299" arabic-form="initial" 
d="M-8 0v80h16q31 0 62.5 5t56.5 13t38 17q0 43 -6 89.5t-15 90t-18 76.5q8 5 19 9.5t24 4.5q18 0 30 -11.5t18 -40.5q4 -18 8.5 -49t8 -66t3.5 -65q0 -46 -8 -70t-37 -42q-30 -19 -80.5 -30t-103.5 -11h-16zM144 -180q-23 0 -37 14t-14 37t14 37t37 14t37 -14t14 -37
t-14 -37t-37 -14z" />
    <glyph glyph-name="beh.ar.medi" unicode="&#x628;" horiz-adv-x="301" arabic-form="medial" 
d="M-8 0v80h16q53 0 79 23t27 73l2 122q4 2 14 5t21 3q16 0 25 -8.5t9 -23.5l2 -103q1 -46 27.5 -68.5t78.5 -22.5h16v-80h-18q-36 0 -65 10t-48.5 30t-28.5 50h5q-3 -29 -24.5 -49t-53.5 -30.5t-67 -10.5h-17zM309 0v80q4 -6 7 -16t3 -24t-3.5 -24.5t-6.5 -15.5zM151 -180
q-23 0 -37 14t-14 37t14 37t37 14t37 -14t14 -37t-14 -37t-37 -14z" />
    <glyph glyph-name="beh.ar.fina" unicode="&#x628;" horiz-adv-x="901" arabic-form="final" 
d="M417 -16q-129 0 -207 29.5t-113 83.5t-35 128q0 65 15 92.5t40 27.5q12 0 21 -2.5t15 -6.5q-5 -24 -9 -44.5t-4 -48.5q0 -63 30 -103t93.5 -58.5t162.5 -18.5q79 0 140 13t102.5 31.5t59.5 34.5l-16 -54l4 210q4 2 14 5t20 3q17 0 26 -8.5t9 -23.5l2 -103q1 -46 27 -68.5
t86 -22.5h9v-80h-11q-73 0 -115.5 24t-50.5 73l27 -20q-28 -22 -76 -43.5t-115 -35.5t-151 -14zM909 0v80q4 -6 7 -16t3 -24t-3.5 -24.5t-6.5 -15.5zM428 -196q-23 0 -37 14t-14 37t14 37t37 14t37 -14t14 -37t-14 -37t-37 -14z" />
    <glyph glyph-name="peh.ar.init" unicode="&#x67e;" horiz-adv-x="299" arabic-form="initial" 
d="M-8 0v80h16q31 0 62.5 5t56.5 13t38 17q0 43 -6 89.5t-15 90t-18 76.5q8 5 19 9.5t24 4.5q18 0 30 -11.5t18 -40.5q4 -18 8.5 -49t8 -66t3.5 -65q0 -46 -8 -70t-37 -42q-30 -19 -80.5 -30t-103.5 -11h-16zM74 -177q-23 0 -36 13t-13 36t13 36t36 13t36 -13t13 -36
t-13 -36t-36 -13zM214 -177q-23 0 -36 13t-13 36t13 36t36 13t36 -13t13 -36t-13 -36t-36 -13zM144 -200q22 0 35 -12.5t13 -35.5q0 -22 -13 -35t-35 -13t-35 13t-13 35q0 23 13 35.5t35 12.5z" />
    <glyph glyph-name="peh.ar.medi" unicode="&#x67e;" horiz-adv-x="293" arabic-form="medial" 
d="M-16 0v80h16q53 0 79 23t27 73l2 122q4 2 14 5t21 3q16 0 25 -8.5t9 -23.5l2 -103q1 -46 27.5 -68.5t78.5 -22.5h16v-80h-18q-36 0 -65 10t-48.5 30t-28.5 50h5q-3 -29 -24.5 -49t-53.5 -30.5t-67 -10.5h-17zM301 0v80q4 -6 7 -16t3 -24t-3.5 -24.5t-6.5 -15.5zM73 -177
q-23 0 -36 13t-13 36t13 36t36 13t36 -13t13 -36t-13 -36t-36 -13zM213 -177q-23 0 -36 13t-13 36t13 36t36 13t36 -13t13 -36t-13 -36t-36 -13zM143 -200q22 0 35 -12.5t13 -35.5q0 -22 -13 -35t-35 -13t-35 13t-13 35q0 23 13 35.5t35 12.5z" />
    <glyph glyph-name="peh.ar.fina" unicode="&#x67e;" horiz-adv-x="901" arabic-form="final" 
d="M417 -16q-129 0 -207 29.5t-113 83.5t-35 128q0 65 15 92.5t40 27.5q12 0 21 -2.5t15 -6.5q-5 -24 -9 -44.5t-4 -48.5q0 -63 30 -103t93.5 -58.5t162.5 -18.5q79 0 140 13t102.5 31.5t59.5 34.5l-16 -54l4 210q4 2 14 5t20 3q17 0 26 -8.5t9 -23.5l2 -103q1 -46 27 -68.5
t86 -22.5h9v-80h-11q-73 0 -115.5 24t-50.5 73l27 -20q-28 -22 -76 -43.5t-115 -35.5t-151 -14zM909 0v80q4 -6 7 -16t3 -24t-3.5 -24.5t-6.5 -15.5zM358 -193q-23 0 -36 13t-13 36t13 36t36 13t36 -13t13 -36t-13 -36t-36 -13zM498 -193q-23 0 -36 13t-13 36t13 36t36 13
t36 -13t13 -36t-13 -36t-36 -13zM428 -216q22 0 35 -12.5t13 -35.5q0 -22 -13 -35t-35 -13t-35 13t-13 35q0 23 13 35.5t35 12.5z" />
    <glyph glyph-name="teh.ar.init" unicode="&#x62a;" horiz-adv-x="299" arabic-form="initial" 
d="M-8 0v80h16q31 0 62.5 5t56.5 13t38 17q0 43 -6 89.5t-15 90t-18 76.5q8 5 19 9.5t24 4.5q18 0 30 -11.5t18 -40.5q4 -18 8.5 -49t8 -66t3.5 -65q0 -46 -8 -70t-37 -42q-30 -19 -80.5 -30t-103.5 -11h-16zM85 462q-23 0 -36 13.5t-13 35.5q0 23 13 36t36 13t36 -13
t13 -36q0 -22 -13 -35.5t-36 -13.5zM225 462q-23 0 -36 13.5t-13 35.5q0 23 13 36t36 13t36 -13t13 -36q0 -22 -13 -35.5t-36 -13.5z" />
    <glyph glyph-name="teh.ar.medi" unicode="&#x62a;" horiz-adv-x="293" arabic-form="medial" 
d="M-16 0v80h16q53 0 79 23t27 73l2 122q4 2 14 5t21 3q16 0 25 -8.5t9 -23.5l2 -103q1 -46 27.5 -68.5t78.5 -22.5h16v-80h-18q-36 0 -65 10t-48.5 30t-28.5 50h5q-3 -29 -24.5 -49t-53.5 -30.5t-67 -10.5h-17zM301 0v80q4 -6 7 -16t3 -24t-3.5 -24.5t-6.5 -15.5zM73 382
q-23 0 -36 13.5t-13 35.5q0 23 13 36t36 13t36 -13t13 -36q0 -22 -13 -35.5t-36 -13.5zM213 382q-23 0 -36 13.5t-13 35.5q0 23 13 36t36 13t36 -13t13 -36q0 -22 -13 -35.5t-36 -13.5z" />
    <glyph glyph-name="teh.ar.fina" unicode="&#x62a;" horiz-adv-x="901" arabic-form="final" 
d="M417 -16q-129 0 -207 29.5t-113 83.5t-35 128q0 65 15 92.5t40 27.5q12 0 21 -2.5t15 -6.5q-5 -24 -9 -44.5t-4 -48.5q0 -63 30 -103t93.5 -58.5t162.5 -18.5q79 0 140 13t102.5 31.5t59.5 34.5l-16 -54l4 210q4 2 14 5t20 3q17 0 26 -8.5t9 -23.5l2 -103q1 -46 27 -68.5
t86 -22.5h9v-80h-11q-73 0 -115.5 24t-50.5 73l27 -20q-28 -22 -76 -43.5t-115 -35.5t-151 -14zM909 0v80q4 -6 7 -16t3 -24t-3.5 -24.5t-6.5 -15.5zM373 382q-23 0 -36 13.5t-13 35.5q0 23 13 36t36 13t36 -13t13 -36q0 -22 -13 -35.5t-36 -13.5zM513 382q-23 0 -36 13.5
t-13 35.5q0 23 13 36t36 13t36 -13t13 -36q0 -22 -13 -35.5t-36 -13.5z" />
    <glyph glyph-name="theh.ar.init" unicode="&#x62b;" horiz-adv-x="299" arabic-form="initial" 
d="M-8 0v80h16q31 0 62.5 5t56.5 13t38 17q0 43 -6 89.5t-15 90t-18 76.5q8 5 19 9.5t24 4.5q18 0 30 -11.5t18 -40.5q4 -18 8.5 -49t8 -66t3.5 -65q0 -46 -8 -70t-37 -42q-30 -19 -80.5 -30t-103.5 -11h-16zM155 583q-22 0 -35 13t-13 35t13 35t35 13t35 -13t13 -35
t-13 -35t-35 -13zM85 462q-23 0 -36 13.5t-13 35.5q0 23 13 36t36 13t36 -13t13 -36q0 -22 -13 -35.5t-36 -13.5zM225 462q-23 0 -36 13.5t-13 35.5q0 23 13 36t36 13t36 -13t13 -36q0 -22 -13 -35.5t-36 -13.5z" />
    <glyph glyph-name="theh.ar.medi" unicode="&#x62b;" horiz-adv-x="293" arabic-form="medial" 
d="M-16 0v80h16q53 0 79 23t27 73l2 122q4 2 14 5t21 3q16 0 25 -8.5t9 -23.5l2 -103q1 -46 27.5 -68.5t78.5 -22.5h16v-80h-18q-36 0 -65 10t-48.5 30t-28.5 50h5q-3 -29 -24.5 -49t-53.5 -30.5t-67 -10.5h-17zM301 0v80q4 -6 7 -16t3 -24t-3.5 -24.5t-6.5 -15.5zM143 503
q-22 0 -35 13t-13 35t13 35t35 13t35 -13t13 -35t-13 -35t-35 -13zM73 382q-23 0 -36 13.5t-13 35.5q0 23 13 36t36 13t36 -13t13 -36q0 -22 -13 -35.5t-36 -13.5zM213 382q-23 0 -36 13.5t-13 35.5q0 23 13 36t36 13t36 -13t13 -36q0 -22 -13 -35.5t-36 -13.5z" />
    <glyph glyph-name="theh.ar.fina" unicode="&#x62b;" horiz-adv-x="901" arabic-form="final" 
d="M417 -16q-129 0 -207 29.5t-113 83.5t-35 128q0 65 15 92.5t40 27.5q12 0 21 -2.5t15 -6.5q-5 -24 -9 -44.5t-4 -48.5q0 -63 30 -103t93.5 -58.5t162.5 -18.5q79 0 140 13t102.5 31.5t59.5 34.5l-16 -54l4 210q4 2 14 5t20 3q17 0 26 -8.5t9 -23.5l2 -103q1 -46 27 -68.5
t86 -22.5h9v-80h-11q-73 0 -115.5 24t-50.5 73l27 -20q-28 -22 -76 -43.5t-115 -35.5t-151 -14zM909 0v80q4 -6 7 -16t3 -24t-3.5 -24.5t-6.5 -15.5zM443 503q-22 0 -35 13t-13 35t13 35t35 13t35 -13t13 -35t-13 -35t-35 -13zM373 382q-23 0 -36 13.5t-13 35.5q0 23 13 36
t36 13t36 -13t13 -36q0 -22 -13 -35.5t-36 -13.5zM513 382q-23 0 -36 13.5t-13 35.5q0 23 13 36t36 13t36 -13t13 -36q0 -22 -13 -35.5t-36 -13.5z" />
    <glyph glyph-name="tteh.ar.init" unicode="&#x679;" horiz-adv-x="299" arabic-form="initial" 
d="M-8 0v80h16q31 0 62.5 5t56.5 13t38 17q0 43 -6 89.5t-15 90t-18 76.5q8 5 19 9.5t24 4.5q18 0 30 -11.5t18 -40.5q4 -18 8.5 -49t8 -66t3.5 -65q0 -46 -8 -70t-37 -42q-30 -19 -80.5 -30t-103.5 -11h-16zM92 515l10 -3q17 -1 28.5 -1.5t18.5 -0.5q38 0 61.5 6t23.5 21
q0 16 -11 27t-29 11q-25 0 -46 -20.5t-35 -51.5l-45 4l16 34l30 15q6 29 30.5 47t56.5 18t56 -22t24 -62q0 -33 -28 -54t-106 -21q-19 0 -39.5 1t-45.5 5q-13 2 -19 8.5t-6 18.5q0 5 1.5 11.5t4.5 13.5q12 -2 25.5 -3t23.5 -2zM100 710q10 0 17 -5t7 -17q0 -26 -0.5 -51.5
t-1.5 -50t-2 -48.5l-40 -30l-6 197q7 2 13 3.5t13 1.5z" />
    <glyph glyph-name="tteh.ar.medi" unicode="&#x679;" horiz-adv-x="293" arabic-form="medial" 
d="M-16 0v80h16q53 0 79 23t27 73l2 122q4 2 14 5t21 3q16 0 25 -8.5t9 -23.5l2 -103q1 -46 27.5 -68.5t78.5 -22.5h16v-80h-18q-36 0 -65 10t-48.5 30t-28.5 50h5q-3 -29 -24.5 -49t-53.5 -30.5t-67 -10.5h-17zM301 0v80q4 -6 7 -16t3 -24t-3.5 -24.5t-6.5 -15.5zM80 435
l10 -3q17 -1 28.5 -1.5t18.5 -0.5q38 0 61.5 6t23.5 21q0 16 -11 27t-29 11q-25 0 -46 -20.5t-35 -51.5l-45 4l16 34l30 15q6 29 30.5 47t56.5 18t56 -22t24 -62q0 -33 -28 -54t-106 -21q-19 0 -39.5 1t-45.5 5q-13 2 -19 8.5t-6 18.5q0 5 1.5 11.5t4.5 13.5q12 -2 25.5 -3
t23.5 -2zM88 630q10 0 17 -5t7 -17q0 -26 -0.5 -51.5t-1.5 -50t-2 -48.5l-40 -30l-6 197q7 2 13 3.5t13 1.5z" />
    <glyph glyph-name="tteh.ar.fina" unicode="&#x679;" horiz-adv-x="901" arabic-form="final" 
d="M417 -16q-129 0 -207 29.5t-113 83.5t-35 128q0 65 15 92.5t40 27.5q12 0 21 -2.5t15 -6.5q-5 -24 -9 -44.5t-4 -48.5q0 -63 30 -103t93.5 -58.5t162.5 -18.5q79 0 140 13t102.5 31.5t59.5 34.5l-16 -54l4 210q4 2 14 5t20 3q17 0 26 -8.5t9 -23.5l2 -103q1 -46 27 -68.5
t86 -22.5h9v-80h-11q-73 0 -115.5 24t-50.5 73l27 -20q-28 -22 -76 -43.5t-115 -35.5t-151 -14zM909 0v80q4 -6 7 -16t3 -24t-3.5 -24.5t-6.5 -15.5zM380 435l10 -3q17 -1 28.5 -1.5t18.5 -0.5q38 0 61.5 6t23.5 21q0 16 -11 27t-29 11q-25 0 -46 -20.5t-35 -51.5l-45 4
l16 34l30 15q6 29 30.5 47t56.5 18t56 -22t24 -62q0 -33 -28 -54t-106 -21q-19 0 -39.5 1t-45.5 5q-13 2 -19 8.5t-6 18.5q0 5 1.5 11.5t4.5 13.5q12 -2 25.5 -3t23.5 -2zM388 630q10 0 17 -5t7 -17q0 -26 -0.5 -51.5t-1.5 -50t-2 -48.5l-40 -30l-6 197q7 2 13 3.5t13 1.5z
" />
    <glyph glyph-name="jeem.ar.init" unicode="&#x62c;" horiz-adv-x="622" arabic-form="initial" 
d="M511 213v-25q-49 26 -98.5 50.5t-94.5 40.5t-81 16q-43 0 -77 -13.5t-59 -38.5q-11 8 -20 20.5t-9 29.5q0 21 22.5 39.5t59.5 29.5t80 11q47 0 93.5 -14t89 -35.5t78.5 -43.5t62 -37q4 -9 6 -16.5t2 -24.5q0 -9 -2.5 -22.5t-5.5 -20.5q-43 -21 -97.5 -48t-119.5 -52.5
t-139 -42t-156 -16.5h-53v80h43q97 0 180.5 22.5t157 53.5t138.5 57zM281 -180q-23 0 -37 14t-14 37t14 37t37 14t37 -14t14 -37t-14 -37t-37 -14z" />
    <glyph glyph-name="jeem.ar.medi" unicode="&#x62c;" horiz-adv-x="670" arabic-form="medial" 
d="M665 0q-85 0 -121 50t-36 133l56 21q2 -51 14 -78t34.5 -36.5t53.5 -9.5h12v-80h-13zM678 0v80q4 -6 7 -16t3 -24t-3.5 -24.5t-6.5 -15.5zM511 213v-25q-49 26 -98.5 50.5t-94.5 40.5t-81 16q-43 0 -77 -13.5t-59 -38.5q-11 8 -20 20.5t-9 29.5q0 21 22.5 39.5t59.5 29.5
t80 11q47 0 93.5 -14t89 -35.5t78.5 -43.5t62 -37q4 -9 6 -16.5t2 -24.5q0 -9 -2.5 -22.5t-5.5 -20.5q-43 -21 -97.5 -48t-119.5 -52.5t-139 -42t-156 -16.5h-53v80h43q97 0 180.5 22.5t157 53.5t138.5 57zM281 -180q-23 0 -37 14t-14 37t14 37t37 14t37 -14t14 -37t-14 -37
t-37 -14z" />
    <glyph glyph-name="jeem.ar.fina" unicode="&#x62c;" horiz-adv-x="658" arabic-form="final" 
d="M666 0v80q4 -6 7 -16t3 -24t-3.5 -24.5t-6.5 -15.5zM653 0q-85 0 -121 50t-36 133l56 21q2 -51 14 -78t34.5 -36.5t53.5 -9.5h12v-80h-13zM236 385q51 0 99 -13t89.5 -32t73 -39t50.5 -35q4 -9 6 -17t2 -24q0 -9 -2.5 -22.5t-5.5 -20.5q-33 -7 -83.5 -17t-106 -27.5
t-104 -45t-79 -68t-30.5 -97.5q0 -76 52.5 -123.5t148.5 -47.5q67 0 119 23t85 57q9 -7 18 -19t9 -31q0 -17 -17 -36t-48 -35.5t-74 -27.5t-95 -11q-89 0 -150.5 33t-94 89.5t-32.5 128.5t31 124t81.5 86.5t109.5 56.5t115.5 35t98.5 20v-38q-36 22 -79 44t-89.5 37
t-94.5 15q-40 0 -73.5 -13.5t-54.5 -33.5q-14 7 -23 19.5t-9 30.5q0 20 21 37t56.5 27.5t79.5 10.5zM361 -103q-22 0 -36 14t-14 36q0 23 14 36.5t36 13.5q23 0 36.5 -13.5t13.5 -36.5q0 -22 -13.5 -36t-36.5 -14z" />
    <glyph glyph-name="tcheh.ar.init" unicode="&#x686;" horiz-adv-x="622" arabic-form="initial" 
d="M511 213v-25q-49 26 -98.5 50.5t-94.5 40.5t-81 16q-43 0 -77 -13.5t-59 -38.5q-11 8 -20 20.5t-9 29.5q0 21 22.5 39.5t59.5 29.5t80 11q47 0 93.5 -14t89 -35.5t78.5 -43.5t62 -37q4 -9 6 -16.5t2 -24.5q0 -9 -2.5 -22.5t-5.5 -20.5q-43 -21 -97.5 -48t-119.5 -52.5
t-139 -42t-156 -16.5h-53v80h43q97 0 180.5 22.5t157 53.5t138.5 57zM211 -177q-23 0 -36 13t-13 36t13 36t36 13t36 -13t13 -36t-13 -36t-36 -13zM351 -177q-23 0 -36 13t-13 36t13 36t36 13t36 -13t13 -36t-13 -36t-36 -13zM281 -200q22 0 35 -12.5t13 -35.5
q0 -22 -13 -35t-35 -13t-35 13t-13 35q0 23 13 35.5t35 12.5z" />
    <glyph glyph-name="tcheh.ar.medi" unicode="&#x686;" horiz-adv-x="670" arabic-form="medial" 
d="M665 0q-85 0 -121 50t-36 133l56 21q2 -51 14 -78t34.5 -36.5t53.5 -9.5h12v-80h-13zM678 0v80q4 -6 7 -16t3 -24t-3.5 -24.5t-6.5 -15.5zM511 213v-25q-49 26 -98.5 50.5t-94.5 40.5t-81 16q-43 0 -77 -13.5t-59 -38.5q-11 8 -20 20.5t-9 29.5q0 21 22.5 39.5t59.5 29.5
t80 11q47 0 93.5 -14t89 -35.5t78.5 -43.5t62 -37q4 -9 6 -16.5t2 -24.5q0 -9 -2.5 -22.5t-5.5 -20.5q-43 -21 -97.5 -48t-119.5 -52.5t-139 -42t-156 -16.5h-53v80h43q97 0 180.5 22.5t157 53.5t138.5 57zM211 -177q-23 0 -36 13t-13 36t13 36t36 13t36 -13t13 -36t-13 -36
t-36 -13zM351 -177q-23 0 -36 13t-13 36t13 36t36 13t36 -13t13 -36t-13 -36t-36 -13zM281 -200q22 0 35 -12.5t13 -35.5q0 -22 -13 -35t-35 -13t-35 13t-13 35q0 23 13 35.5t35 12.5z" />
    <glyph glyph-name="tcheh.ar.fina" unicode="&#x686;" horiz-adv-x="658" arabic-form="final" 
d="M666 0v80q4 -6 7 -16t3 -24t-3.5 -24.5t-6.5 -15.5zM653 0q-85 0 -121 50t-36 133l56 21q2 -51 14 -78t34.5 -36.5t53.5 -9.5h12v-80h-13zM236 385q51 0 99 -13t89.5 -32t73 -39t50.5 -35q4 -9 6 -17t2 -24q0 -9 -2.5 -22.5t-5.5 -20.5q-33 -7 -83.5 -17t-106 -27.5
t-104 -45t-79 -68t-30.5 -97.5q0 -76 52.5 -123.5t148.5 -47.5q67 0 119 23t85 57q9 -7 18 -19t9 -31q0 -17 -17 -36t-48 -35.5t-74 -27.5t-95 -11q-89 0 -150.5 33t-94 89.5t-32.5 128.5t31 124t81.5 86.5t109.5 56.5t115.5 35t98.5 20v-38q-36 22 -79 44t-89.5 37
t-94.5 15q-40 0 -73.5 -13.5t-54.5 -33.5q-14 7 -23 19.5t-9 30.5q0 20 21 37t56.5 27.5t79.5 10.5zM359 -68q20 0 31 -11t11 -31t-11 -31t-31 -11t-31 11t-11 31t11 31t31 11zM299 40q20 0 32 -12t12 -33q0 -20 -12 -32t-32 -12q-21 0 -32.5 12t-11.5 32q0 21 11.5 33
t32.5 12zM420 40q20 0 32 -12t12 -33q0 -20 -12 -32t-32 -12q-21 0 -32.5 12t-11.5 32q0 21 11.5 33t32.5 12z" />
    <glyph glyph-name="hah.ar.init" unicode="&#x62d;" horiz-adv-x="622" arabic-form="initial" 
d="M511 213v-25q-49 26 -98.5 50.5t-94.5 40.5t-81 16q-43 0 -77 -13.5t-59 -38.5q-11 8 -20 20.5t-9 29.5q0 21 22.5 39.5t59.5 29.5t80 11q47 0 93.5 -14t89 -35.5t78.5 -43.5t62 -37q4 -9 6 -16.5t2 -24.5q0 -9 -2.5 -22.5t-5.5 -20.5q-43 -21 -97.5 -48t-119.5 -52.5
t-139 -42t-156 -16.5h-53v80h43q97 0 180.5 22.5t157 53.5t138.5 57z" />
    <glyph glyph-name="hah.ar.medi" unicode="&#x62d;" horiz-adv-x="670" arabic-form="medial" 
d="M665 0q-85 0 -121 50t-36 133l56 21q2 -51 14 -78t34.5 -36.5t53.5 -9.5h12v-80h-13zM678 0v80q4 -6 7 -16t3 -24t-3.5 -24.5t-6.5 -15.5zM511 213v-25q-49 26 -98.5 50.5t-94.5 40.5t-81 16q-43 0 -77 -13.5t-59 -38.5q-11 8 -20 20.5t-9 29.5q0 21 22.5 39.5t59.5 29.5
t80 11q47 0 93.5 -14t89 -35.5t78.5 -43.5t62 -37q4 -9 6 -16.5t2 -24.5q0 -9 -2.5 -22.5t-5.5 -20.5q-43 -21 -97.5 -48t-119.5 -52.5t-139 -42t-156 -16.5h-53v80h43q97 0 180.5 22.5t157 53.5t138.5 57z" />
    <glyph glyph-name="hah.ar.fina" unicode="&#x62d;" horiz-adv-x="658" arabic-form="final" 
d="M666 0v80q4 -6 7 -16t3 -24t-3.5 -24.5t-6.5 -15.5zM653 0q-85 0 -121 50t-36 133l56 21q2 -51 14 -78t34.5 -36.5t53.5 -9.5h12v-80h-13zM236 385q51 0 99 -13t89.5 -32t73 -39t50.5 -35q4 -9 6 -17t2 -24q0 -9 -2.5 -22.5t-5.5 -20.5q-33 -7 -83.5 -17t-106 -27.5
t-104 -45t-79 -68t-30.5 -97.5q0 -76 52.5 -123.5t148.5 -47.5q67 0 119 23t85 57q9 -7 18 -19t9 -31q0 -17 -17 -36t-48 -35.5t-74 -27.5t-95 -11q-89 0 -150.5 33t-94 89.5t-32.5 128.5t31 124t81.5 86.5t109.5 56.5t115.5 35t98.5 20v-38q-36 22 -79 44t-89.5 37
t-94.5 15q-40 0 -73.5 -13.5t-54.5 -33.5q-14 7 -23 19.5t-9 30.5q0 20 21 37t56.5 27.5t79.5 10.5z" />
    <glyph glyph-name="khah.ar.init" unicode="&#x62e;" horiz-adv-x="622" arabic-form="initial" 
d="M511 213v-25q-49 26 -98.5 50.5t-94.5 40.5t-81 16q-43 0 -77 -13.5t-59 -38.5q-11 8 -20 20.5t-9 29.5q0 21 22.5 39.5t59.5 29.5t80 11q47 0 93.5 -14t89 -35.5t78.5 -43.5t62 -37q4 -9 6 -16.5t2 -24.5q0 -9 -2.5 -22.5t-5.5 -20.5q-43 -21 -97.5 -48t-119.5 -52.5
t-139 -42t-156 -16.5h-53v80h43q97 0 180.5 22.5t157 53.5t138.5 57zM309 447q-23 0 -37 14t-14 37t14 37t37 14t37 -14t14 -37t-14 -37t-37 -14z" />
    <glyph glyph-name="khah.ar.medi" unicode="&#x62e;" horiz-adv-x="670" arabic-form="medial" 
d="M665 0q-85 0 -121 50t-36 133l56 21q2 -51 14 -78t34.5 -36.5t53.5 -9.5h12v-80h-13zM678 0v80q4 -6 7 -16t3 -24t-3.5 -24.5t-6.5 -15.5zM511 213v-25q-49 26 -98.5 50.5t-94.5 40.5t-81 16q-43 0 -77 -13.5t-59 -38.5q-11 8 -20 20.5t-9 29.5q0 21 22.5 39.5t59.5 29.5
t80 11q47 0 93.5 -14t89 -35.5t78.5 -43.5t62 -37q4 -9 6 -16.5t2 -24.5q0 -9 -2.5 -22.5t-5.5 -20.5q-43 -21 -97.5 -48t-119.5 -52.5t-139 -42t-156 -16.5h-53v80h43q97 0 180.5 22.5t157 53.5t138.5 57zM309 447q-23 0 -37 14t-14 37t14 37t37 14t37 -14t14 -37t-14 -37
t-37 -14z" />
    <glyph glyph-name="khah.ar.fina" unicode="&#x62e;" horiz-adv-x="658" arabic-form="final" 
d="M666 0v80q4 -6 7 -16t3 -24t-3.5 -24.5t-6.5 -15.5zM653 0q-85 0 -121 50t-36 133l56 21q2 -51 14 -78t34.5 -36.5t53.5 -9.5h12v-80h-13zM236 385q51 0 99 -13t89.5 -32t73 -39t50.5 -35q4 -9 6 -17t2 -24q0 -9 -2.5 -22.5t-5.5 -20.5q-33 -7 -83.5 -17t-106 -27.5
t-104 -45t-79 -68t-30.5 -97.5q0 -76 52.5 -123.5t148.5 -47.5q67 0 119 23t85 57q9 -7 18 -19t9 -31q0 -17 -17 -36t-48 -35.5t-74 -27.5t-95 -11q-89 0 -150.5 33t-94 89.5t-32.5 128.5t31 124t81.5 86.5t109.5 56.5t115.5 35t98.5 20v-38q-36 22 -79 44t-89.5 37
t-94.5 15q-40 0 -73.5 -13.5t-54.5 -33.5q-14 7 -23 19.5t-9 30.5q0 20 21 37t56.5 27.5t79.5 10.5zM331 453q-23 0 -37 14t-14 37t14 37t37 14t37 -14t14 -37t-14 -37t-37 -14z" />
    <glyph glyph-name="dal.ar.fina" unicode="&#x62f;" horiz-adv-x="553" arabic-form="final" 
d="M551 0q-44 0 -74 13.5t-49 36t-33 47.5l-13 25q-26 58 -54.5 116.5t-54 109.5t-45.5 86q9 10 23 17.5t30 7.5q18 0 30 -8.5t21 -29.5l99 -231q21 -49 46.5 -79.5t78.5 -30.5h5v-80h-10zM188 0q-32 0 -59 5t-41 10q-25 10 -34.5 21.5t-9.5 25.5q0 15 4.5 25t10.5 17
q27 -13 61.5 -19.5t71.5 -5.5q49 1 89 12t66.5 28t33.5 36l54 -45q-9 -23 -37 -49t-79 -43.5t-131 -17.5zM561 0v80q4 -6 7 -16t3 -24t-3.5 -24.5t-6.5 -15.5z" />
    <glyph glyph-name="thal.ar.fina" unicode="&#x630;" horiz-adv-x="553" arabic-form="final" 
d="M551 0q-44 0 -74 13.5t-49 36t-33 47.5l-13 25q-26 58 -54.5 116.5t-54 109.5t-45.5 86q9 10 23 17.5t30 7.5q18 0 30 -8.5t21 -29.5l99 -231q21 -49 46.5 -79.5t78.5 -30.5h5v-80h-10zM188 0q-32 0 -59 5t-41 10q-25 10 -34.5 21.5t-9.5 25.5q0 15 4.5 25t10.5 17
q27 -13 61.5 -19.5t71.5 -5.5q49 1 89 12t66.5 28t33.5 36l54 -45q-9 -23 -37 -49t-79 -43.5t-131 -17.5zM561 0v80q4 -6 7 -16t3 -24t-3.5 -24.5t-6.5 -15.5zM276 536q-23 0 -37 14t-14 37t14 37t37 14t37 -14t14 -37t-14 -37t-37 -14z" />
    <glyph glyph-name="ddal.ar.fina" unicode="&#x688;" horiz-adv-x="553" arabic-form="final" 
d="M551 0q-44 0 -74 13.5t-49 36t-33 47.5l-13 25q-26 58 -54.5 116.5t-54 109.5t-45.5 86q9 10 23 17.5t30 7.5q18 0 30 -8.5t21 -29.5l99 -231q21 -49 46.5 -79.5t78.5 -30.5h5v-80h-10zM188 0q-32 0 -59 5t-41 10q-25 10 -34.5 21.5t-9.5 25.5q0 15 4.5 25t10.5 17
q27 -13 61.5 -19.5t71.5 -5.5q49 1 89 12t66.5 28t33.5 36l54 -45q-9 -23 -37 -49t-79 -43.5t-131 -17.5zM561 0v80q4 -6 7 -16t3 -24t-3.5 -24.5t-6.5 -15.5zM213 588l10 -3q17 -1 28.5 -1.5t18.5 -0.5q38 0 61.5 6t23.5 21q0 16 -11 27t-29 11q-25 0 -46 -20.5t-35 -51.5
l-45 4l16 34l30 15q6 29 30.5 47t56.5 18t56 -22t24 -62q0 -33 -28 -54t-106 -21q-19 0 -39.5 1t-45.5 5q-13 2 -19 8.5t-6 18.5q0 5 1.5 11.5t4.5 13.5q12 -2 25.5 -3t23.5 -2zM221 783q10 0 17 -5t7 -17q0 -26 -0.5 -51.5t-1.5 -50t-2 -48.5l-40 -30l-6 197q7 2 13 3.5
t13 1.5z" />
    <glyph glyph-name="reh.ar.fina" unicode="&#x631;" horiz-adv-x="384" arabic-form="final" 
d="M227 21q-4 34 -13 72.5t-21 81t-27 87.5q5 5 16.5 11t27.5 6q17 0 28 -11t20 -41q14 -47 24 -98t13 -89q-6 -90 -36 -149.5t-79.5 -89.5t-112.5 -30q-47 0 -83 18t-36 52q0 14 6.5 25.5t14.5 18.5q17 -16 43.5 -25t50.5 -9q71 0 110 45.5t54 124.5zM376 0
q-44 0 -71.5 22.5t-44.5 80.5l13 66q17 -55 46.5 -72t65.5 -17h7v-80h-16zM392 0v80q4 -6 7 -16t3 -24t-3.5 -24.5t-6.5 -15.5z" />
    <glyph glyph-name="zain.ar.fina" unicode="&#x632;" horiz-adv-x="384" arabic-form="final" 
d="M227 21q-4 34 -13 72.5t-21 81t-27 87.5q5 5 16.5 11t27.5 6q17 0 28 -11t20 -41q14 -47 24 -98t13 -89q-6 -90 -36 -149.5t-79.5 -89.5t-112.5 -30q-47 0 -83 18t-36 52q0 14 6.5 25.5t14.5 18.5q17 -16 43.5 -25t50.5 -9q71 0 110 45.5t54 124.5zM376 0
q-44 0 -71.5 22.5t-44.5 80.5l13 66q17 -55 46.5 -72t65.5 -17h7v-80h-16zM392 0v80q4 -6 7 -16t3 -24t-3.5 -24.5t-6.5 -15.5zM200 356q-23 0 -37 14t-14 37t14 37t37 14t37 -14t14 -37t-14 -37t-37 -14z" />
    <glyph glyph-name="rreh.ar.fina" unicode="&#x691;" horiz-adv-x="384" arabic-form="final" 
d="M227 21q-4 34 -13 72.5t-21 81t-27 87.5q5 5 16.5 11t27.5 6q17 0 28 -11t20 -41q14 -47 24 -98t13 -89q-6 -90 -36 -149.5t-79.5 -89.5t-112.5 -30q-47 0 -83 18t-36 52q0 14 6.5 25.5t14.5 18.5q17 -16 43.5 -25t50.5 -9q71 0 110 45.5t54 124.5zM376 0
q-44 0 -71.5 22.5t-44.5 80.5l13 66q17 -55 46.5 -72t65.5 -17h7v-80h-16zM392 0v80q4 -6 7 -16t3 -24t-3.5 -24.5t-6.5 -15.5zM137 408l10 -3q17 -1 28.5 -1.5t18.5 -0.5q38 0 61.5 6t23.5 21q0 16 -11 27t-29 11q-25 0 -46 -20.5t-35 -51.5l-45 4l16 34l30 15
q6 29 30.5 47t56.5 18t56 -22t24 -62q0 -33 -28 -54t-106 -21q-19 0 -39.5 1t-45.5 5q-13 2 -19 8.5t-6 18.5q0 5 1.5 11.5t4.5 13.5q12 -2 25.5 -3t23.5 -2zM145 603q10 0 17 -5t7 -17q0 -26 -0.5 -51.5t-1.5 -50t-2 -48.5l-40 -30l-6 197q7 2 13 3.5t13 1.5z" />
    <glyph glyph-name="jeh.ar.fina" unicode="&#x698;" horiz-adv-x="384" arabic-form="final" 
d="M227 21q-4 34 -13 72.5t-21 81t-27 87.5q5 5 16.5 11t27.5 6q17 0 28 -11t20 -41q14 -47 24 -98t13 -89q-6 -90 -36 -149.5t-79.5 -89.5t-112.5 -30q-47 0 -83 18t-36 52q0 14 6.5 25.5t14.5 18.5q17 -16 43.5 -25t50.5 -9q71 0 110 45.5t54 124.5zM376 0
q-44 0 -71.5 22.5t-44.5 80.5l13 66q17 -55 46.5 -72t65.5 -17h7v-80h-16zM392 0v80q4 -6 7 -16t3 -24t-3.5 -24.5t-6.5 -15.5zM200 476q-22 0 -35 13t-13 35t13 35t35 13t35 -13t13 -35t-13 -35t-35 -13zM130 355q-23 0 -36 13.5t-13 35.5q0 23 13 36t36 13t36 -13t13 -36
q0 -22 -13 -35.5t-36 -13.5zM270 355q-23 0 -36 13.5t-13 35.5q0 23 13 36t36 13t36 -13t13 -36q0 -22 -13 -35.5t-36 -13.5z" />
    <glyph glyph-name="seen.ar.init" unicode="&#x633;" horiz-adv-x="692" arabic-form="initial" 
d="M360 275q16 0 24.5 -8t9.5 -23l2 -63q2 -55 24.5 -78.5t63.5 -23.5q32 0 53 16t21 26q0 32 -3.5 65.5t-9.5 66.5t-13 63t-13 55q8 5 19 9.5t24 4.5q18 0 30 -11.5t18 -40.5q4 -18 8.5 -49t8 -66t3.5 -65q0 -78 -40.5 -115.5t-107.5 -37.5q-58 0 -91 29.5t-40 65.5l14 -1
q-5 -29 -19.5 -50t-38 -32.5t-55.5 -11.5q-46 0 -77 25.5t-40 69.5l15 -1q-9 -39 -43.5 -66.5t-98.5 -27.5h-16v80h16q49 0 73 21t25 70l2 128q4 2 15 4.5t21 2.5q16 0 25 -8.5t9 -22.5l2 -104q1 -49 21 -70.5t53 -21.5q37 0 52 24t16 73l2 92q4 2 15 4.5t21 2.5z" />
    <glyph glyph-name="seen.ar.medi" unicode="&#x633;" horiz-adv-x="708" arabic-form="medial" 
d="M351 95l14 -1q-5 -29 -19.5 -50t-38 -32.5t-55.5 -11.5q-46 0 -77 25.5t-40 69.5l15 -1q-9 -39 -43.5 -66.5t-98.5 -27.5h-16v80h16q49 0 73 21t25 70l2 128q4 2 15 4.5t21 2.5q16 0 25 -8.5t9 -22.5l2 -104q1 -49 21 -70.5t53 -21.5q37 0 52 24t16 73l2 92q4 2 15 4.5
t21 2.5q16 0 24.5 -8t9.5 -23l2 -73q2 -49 18.5 -70.5t49.5 -21.5q31 0 48.5 21.5t18.5 70.5l2 138q4 2 15 4.5t21 2.5q16 0 25 -8.5t9 -22.5l2 -117q1 -47 28 -67.5t66 -20.5h17v-80h-10q-63 0 -99.5 26t-45.5 69l16 -1q-8 -42 -34 -68t-79 -26q-52 0 -79.5 29.5
t-33.5 65.5zM716 0v80q4 -6 7 -16t3 -24t-3.5 -24.5t-6.5 -15.5z" />
    <glyph glyph-name="seen.ar.fina" unicode="&#x633;" horiz-adv-x="1081" arabic-form="final" 
d="M724 95l10 -1q-3 -45 -30 -69.5t-62 -24.5q-30 0 -47.5 11t-27 27t-15.5 31l-10 109q14 -56 33.5 -77.5t50.5 -21.5q32 0 50 21.5t19 65.5l2 102q4 2 15 4.5t21 2.5q16 0 24.5 -8t9.5 -23l2 -73q2 -49 18.5 -70.5t49.5 -21.5q31 0 48.5 21.5t18.5 70.5l2 138q4 2 15 4.5
t21 2.5q16 0 25 -8.5t9 -22.5l2 -117q1 -47 28 -67.5t66 -20.5h17v-80h-10q-63 0 -99.5 26t-45.5 69l16 -1q-8 -42 -34 -68t-79 -26q-52 0 -79.5 29.5t-33.5 65.5zM1089 0v80q4 -6 7 -16t3 -24t-3.5 -24.5t-6.5 -15.5zM505 13q-5 38 -14 78t-21 83t-27 88q5 5 16.5 11
t27.5 6q17 0 28 -11t20 -41q17 -58 28 -117.5t11 -94.5q-2 -63 -33.5 -116.5t-88.5 -85.5t-138 -32q-83 0 -141.5 31.5t-89.5 90t-31 138.5t19 114t44 34q12 0 21 -3t16 -8q-9 -25 -15.5 -54t-6.5 -67q0 -96 47.5 -146.5t140.5 -50.5q54 0 95 21t65 56t27 76z" />
    <glyph glyph-name="sheen.ar.init" unicode="&#x634;" horiz-adv-x="692" arabic-form="initial" 
d="M360 275q16 0 24.5 -8t9.5 -23l2 -63q2 -55 24.5 -78.5t63.5 -23.5q32 0 53 16t21 26q0 32 -3.5 65.5t-9.5 66.5t-13 63t-13 55q8 5 19 9.5t24 4.5q18 0 30 -11.5t18 -40.5q4 -18 8.5 -49t8 -66t3.5 -65q0 -78 -40.5 -115.5t-107.5 -37.5q-58 0 -91 29.5t-40 65.5l14 -1
q-5 -29 -19.5 -50t-38 -32.5t-55.5 -11.5q-46 0 -77 25.5t-40 69.5l15 -1q-9 -39 -43.5 -66.5t-98.5 -27.5h-16v80h16q49 0 73 21t25 70l2 128q4 2 15 4.5t21 2.5q16 0 25 -8.5t9 -22.5l2 -104q1 -49 21 -70.5t53 -21.5q37 0 52 24t16 73l2 92q4 2 15 4.5t21 2.5zM360 472
q-22 0 -35 13t-13 35t13 35t35 13t35 -13t13 -35t-13 -35t-35 -13zM290 351q-23 0 -36 13.5t-13 35.5q0 23 13 36t36 13t36 -13t13 -36q0 -22 -13 -35.5t-36 -13.5zM430 351q-23 0 -36 13.5t-13 35.5q0 23 13 36t36 13t36 -13t13 -36q0 -22 -13 -35.5t-36 -13.5z" />
    <glyph glyph-name="sheen.ar.medi" unicode="&#x634;" horiz-adv-x="690" arabic-form="medial" 
d="M351 95l14 -1q-5 -29 -19.5 -50t-38 -32.5t-55.5 -11.5q-46 0 -77 25.5t-40 69.5l15 -1q-9 -39 -43.5 -66.5t-98.5 -27.5h-16v80h16q49 0 73 21t25 70l2 128q4 2 15 4.5t21 2.5q16 0 25 -8.5t9 -22.5l2 -104q1 -49 21 -70.5t53 -21.5q37 0 52 24t16 73l2 92q4 2 15 4.5
t21 2.5q16 0 24.5 -8t9.5 -23l2 -73q2 -49 18.5 -70.5t49.5 -21.5q31 0 48.5 21.5t18.5 70.5l2 138q4 2 15 4.5t21 2.5q16 0 25 -8.5t9 -22.5l2 -117q1 -47 28 -67.5t66 -20.5h17v-80h-10q-63 0 -99.5 26t-45.5 69l16 -1q-8 -42 -34 -68t-79 -26q-52 0 -79.5 29.5
t-33.5 65.5zM716 0v80q4 -6 7 -16t3 -24t-3.5 -24.5t-6.5 -15.5zM360 472q-22 0 -35 13t-13 35t13 35t35 13t35 -13t13 -35t-13 -35t-35 -13zM290 351q-23 0 -36 13.5t-13 35.5q0 23 13 36t36 13t36 -13t13 -36q0 -22 -13 -35.5t-36 -13.5zM430 351q-23 0 -36 13.5t-13 35.5
q0 23 13 36t36 13t36 -13t13 -36q0 -22 -13 -35.5t-36 -13.5z" />
    <glyph glyph-name="sheen.ar.fina" unicode="&#x634;" horiz-adv-x="1081" arabic-form="final" 
d="M724 95l10 -1q-3 -45 -30 -69.5t-62 -24.5q-30 0 -47.5 11t-27 27t-15.5 31l-10 109q14 -56 33.5 -77.5t50.5 -21.5q32 0 50 21.5t19 65.5l2 102q4 2 15 4.5t21 2.5q16 0 24.5 -8t9.5 -23l2 -73q2 -49 18.5 -70.5t49.5 -21.5q31 0 48.5 21.5t18.5 70.5l2 138q4 2 15 4.5
t21 2.5q16 0 25 -8.5t9 -22.5l2 -117q1 -47 28 -67.5t66 -20.5h17v-80h-10q-63 0 -99.5 26t-45.5 69l16 -1q-8 -42 -34 -68t-79 -26q-52 0 -79.5 29.5t-33.5 65.5zM1089 0v80q4 -6 7 -16t3 -24t-3.5 -24.5t-6.5 -15.5zM505 13q-5 38 -14 78t-21 83t-27 88q5 5 16.5 11
t27.5 6q17 0 28 -11t20 -41q17 -58 28 -117.5t11 -94.5q-2 -63 -33.5 -116.5t-88.5 -85.5t-138 -32q-83 0 -141.5 31.5t-89.5 90t-31 138.5t19 114t44 34q12 0 21 -3t16 -8q-9 -25 -15.5 -54t-6.5 -67q0 -96 47.5 -146.5t140.5 -50.5q54 0 95 21t65 56t27 76zM733 472
q-22 0 -35 13t-13 35t13 35t35 13t35 -13t13 -35t-13 -35t-35 -13zM663 351q-23 0 -36 13.5t-13 35.5q0 23 13 36t36 13t36 -13t13 -36q0 -22 -13 -35.5t-36 -13.5zM803 351q-23 0 -36 13.5t-13 35.5q0 23 13 36t36 13t36 -13t13 -36q0 -22 -13 -35.5t-36 -13.5z" />
    <glyph glyph-name="sad.ar.init" unicode="&#x635;" horiz-adv-x="813" arabic-form="initial" 
d="M-8 0v80h8q61 0 87 23t27 73l2 122q4 3 14 5.5t21 2.5q16 0 24.5 -8.5t9.5 -23.5l2 -113q1 -21 -3 -34.5t-12.5 -22t-22.5 -14.5h5q-3 -29 -25 -49t-55 -30.5t-71 -10.5h-11zM440 79q114 0 175 25.5t61 84.5q0 47 -35 76.5t-91 29.5q-27 0 -57.5 -9t-63.5 -33.5
t-64.5 -70.5t-59.5 -120l-69 26q29 79 64 134t75 88.5t84.5 48.5t90.5 15q62 0 107 -22t69.5 -63.5t24.5 -99.5q0 -94 -75 -141.5t-236 -47.5q-103 0 -168 10t-97.5 34.5t-41.5 65.5l54 51q0 -23 16 -42.5t62 -30.5q3 -1 8 0.5t9 0.5q29 -4 67.5 -7t90.5 -3z" />
    <glyph glyph-name="sad.ar.medi" unicode="&#x635;" horiz-adv-x="850" arabic-form="medial" 
d="M848 0q-60 0 -96 17.5t-52 46.5t-16 64l46 81q0 -50 11.5 -78t38 -39.5t69.5 -11.5h9v-80h-10zM858 0v80q4 -6 7 -16t3 -24t-3.5 -24.5t-6.5 -15.5zM-8 0v80h8q61 0 87 23t27 73l2 122q4 3 14 5.5t21 2.5q16 0 24.5 -8.5t9.5 -23.5l2 -113q1 -21 -3 -34.5t-12.5 -22
t-22.5 -14.5h5q-3 -29 -25 -49t-55 -30.5t-71 -10.5h-11zM440 79q114 0 175 25.5t61 84.5q0 47 -35 76.5t-91 29.5q-27 0 -57.5 -9t-63.5 -33.5t-64.5 -70.5t-59.5 -120l-69 26q29 79 64 134t75 88.5t84.5 48.5t90.5 15q62 0 107 -22t69.5 -63.5t24.5 -99.5
q0 -94 -75 -141.5t-236 -47.5q-103 0 -168 10t-97.5 34.5t-41.5 65.5l54 51q0 -23 16 -42.5t62 -30.5q3 -1 8 0.5t9 0.5q29 -4 67.5 -7t90.5 -3z" />
    <glyph glyph-name="sad.ar.fina" unicode="&#x635;" horiz-adv-x="1216" arabic-form="final" 
d="M1214 0q-60 0 -96 17.5t-52 46.5t-16 64l46 81q0 -50 11.5 -78t38 -39.5t69.5 -11.5h9v-80h-10zM1224 0v80q4 -6 7 -16t3 -24t-3.5 -24.5t-6.5 -15.5zM806 79q114 0 175 25.5t61 84.5q0 47 -35 76.5t-91 29.5q-27 0 -57.5 -9t-63.5 -33.5t-64.5 -70.5t-59.5 -120l-69 26
q29 79 64 134t75 88.5t84.5 48.5t90.5 15q62 0 107 -22t69.5 -63.5t24.5 -99.5q0 -94 -75 -141.5t-236 -47.5q-93 0 -149.5 8.5t-85.5 27t-42 46.5l26 62q9 -23 23.5 -35t52.5 -21q3 -1 8 0.5t9 0.5q29 -4 67.5 -7t90.5 -3zM505 13q-5 38 -14 78t-21 83t-27 88q5 5 16.5 11
t27.5 6q17 0 28 -11t20 -41q17 -58 28 -117.5t11 -94.5q-2 -63 -33.5 -116.5t-88.5 -85.5t-138 -32q-83 0 -141.5 31.5t-89.5 90t-31 138.5t19 114t44 34q12 0 21 -3t16 -8q-9 -25 -15.5 -54t-6.5 -67q0 -96 47.5 -146.5t140.5 -50.5q54 0 95 21t65 56t27 76z" />
    <glyph glyph-name="dad.ar.init" unicode="&#x636;" horiz-adv-x="813" arabic-form="initial" 
d="M-8 0v80h8q61 0 87 23t27 73l2 122q4 3 14 5.5t21 2.5q16 0 24.5 -8.5t9.5 -23.5l2 -113q1 -21 -3 -34.5t-12.5 -22t-22.5 -14.5h5q-3 -29 -25 -49t-55 -30.5t-71 -10.5h-11zM440 79q114 0 175 25.5t61 84.5q0 47 -35 76.5t-91 29.5q-27 0 -57.5 -9t-63.5 -33.5
t-64.5 -70.5t-59.5 -120l-69 26q29 79 64 134t75 88.5t84.5 48.5t90.5 15q62 0 107 -22t69.5 -63.5t24.5 -99.5q0 -94 -75 -141.5t-236 -47.5q-103 0 -168 10t-97.5 34.5t-41.5 65.5l54 51q0 -23 16 -42.5t62 -30.5q3 -1 8 0.5t9 0.5q29 -4 67.5 -7t90.5 -3zM520 451
q-23 0 -37 14t-14 37t14 37t37 14t37 -14t14 -37t-14 -37t-37 -14z" />
    <glyph glyph-name="dad.ar.medi" unicode="&#x636;" horiz-adv-x="832" arabic-form="medial" 
d="M848 0q-60 0 -96 17.5t-52 46.5t-16 64l46 81q0 -50 11.5 -78t38 -39.5t69.5 -11.5h9v-80h-10zM858 0v80q4 -6 7 -16t3 -24t-3.5 -24.5t-6.5 -15.5zM-8 0v80h8q61 0 87 23t27 73l2 122q4 3 14 5.5t21 2.5q16 0 24.5 -8.5t9.5 -23.5l2 -113q1 -21 -3 -34.5t-12.5 -22
t-22.5 -14.5h5q-3 -29 -25 -49t-55 -30.5t-71 -10.5h-11zM440 79q114 0 175 25.5t61 84.5q0 47 -35 76.5t-91 29.5q-27 0 -57.5 -9t-63.5 -33.5t-64.5 -70.5t-59.5 -120l-69 26q29 79 64 134t75 88.5t84.5 48.5t90.5 15q62 0 107 -22t69.5 -63.5t24.5 -99.5
q0 -94 -75 -141.5t-236 -47.5q-103 0 -168 10t-97.5 34.5t-41.5 65.5l54 51q0 -23 16 -42.5t62 -30.5q3 -1 8 0.5t9 0.5q29 -4 67.5 -7t90.5 -3zM520 451q-23 0 -37 14t-14 37t14 37t37 14t37 -14t14 -37t-14 -37t-37 -14z" />
    <glyph glyph-name="dad.ar.fina" unicode="&#x636;" horiz-adv-x="1216" arabic-form="final" 
d="M1214 0q-60 0 -96 17.5t-52 46.5t-16 64l46 81q0 -50 11.5 -78t38 -39.5t69.5 -11.5h9v-80h-10zM1224 0v80q4 -6 7 -16t3 -24t-3.5 -24.5t-6.5 -15.5zM806 79q114 0 175 25.5t61 84.5q0 47 -35 76.5t-91 29.5q-27 0 -57.5 -9t-63.5 -33.5t-64.5 -70.5t-59.5 -120l-69 26
q29 79 64 134t75 88.5t84.5 48.5t90.5 15q62 0 107 -22t69.5 -63.5t24.5 -99.5q0 -94 -75 -141.5t-236 -47.5q-93 0 -149.5 8.5t-85.5 27t-42 46.5l26 62q9 -23 23.5 -35t52.5 -21q3 -1 8 0.5t9 0.5q29 -4 67.5 -7t90.5 -3zM505 13q-5 38 -14 78t-21 83t-27 88q5 5 16.5 11
t27.5 6q17 0 28 -11t20 -41q17 -58 28 -117.5t11 -94.5q-2 -63 -33.5 -116.5t-88.5 -85.5t-138 -32q-83 0 -141.5 31.5t-89.5 90t-31 138.5t19 114t44 34q12 0 21 -3t16 -8q-9 -25 -15.5 -54t-6.5 -67q0 -96 47.5 -146.5t140.5 -50.5q54 0 95 21t65 56t27 76zM896 451
q-23 0 -37 14t-14 37t14 37t37 14t37 -14t14 -37t-14 -37t-37 -14z" />
    <glyph glyph-name="tah.ar.init" unicode="&#x637;" horiz-adv-x="657" arabic-form="initial" 
d="M284 79q114 0 175 25.5t61 84.5q0 47 -34 76.5t-87 29.5q-27 0 -57.5 -9t-63.5 -33.5t-64.5 -70.5t-59.5 -120l-80 5l29 73l46 66q39 81 104.5 124.5t149.5 43.5q58 0 101 -23t67 -64.5t24 -97.5q0 -94 -75 -141.5t-236 -47.5h-79.5h-85.5h-76h-51v80h123l16 -1h71h82z
M96 61l-6 604q5 2 16.5 4.5t23.5 2.5q20 0 29.5 -8.5t9.5 -25.5l-2 -505z" />
    <glyph glyph-name="tah.ar.medi" unicode="&#x637;" horiz-adv-x="694" arabic-form="medial" 
d="M692 0q-60 0 -96 17.5t-52 46.5t-16 64l46 81q0 -50 11.5 -78t38 -39.5t69.5 -11.5h9v-80h-10zM702 0v80q4 -6 7 -16t3 -24t-3.5 -24.5t-6.5 -15.5zM284 79q114 0 175 25.5t61 84.5q0 47 -34 76.5t-87 29.5q-27 0 -57.5 -9t-63.5 -33.5t-64.5 -70.5t-59.5 -120l-80 5
l29 73l46 66q39 81 104.5 124.5t149.5 43.5q58 0 101 -23t67 -64.5t24 -97.5q0 -94 -75 -141.5t-236 -47.5h-79.5h-85.5h-76h-51v80h123l16 -1h71h82zM96 61l-6 604q5 2 16.5 4.5t23.5 2.5q20 0 29.5 -8.5t9.5 -25.5l-2 -505z" />
    <glyph glyph-name="tah.ar.fina" unicode="&#x637;" horiz-adv-x="733" arabic-form="final" 
d="M731 0q-60 0 -96 17.5t-52 46.5t-16 64l46 81q0 -50 11.5 -78t38 -39.5t69.5 -11.5h9v-80h-10zM741 0v80q4 -6 7 -16t3 -24t-3.5 -24.5t-6.5 -15.5zM323 79q114 0 175 25.5t61 84.5q0 47 -34 76.5t-87 29.5q-27 0 -57.5 -9t-63.5 -33.5t-64.5 -70.5t-59.5 -120l-75 14
l25 64l45 66q40 81 105 124.5t149 43.5q57 0 100.5 -22.5t67.5 -64t24 -98.5q0 -94 -74.5 -141.5t-246.5 -47.5q-85 0 -142.5 1.5t-89.5 4.5q-22 2 -33.5 11.5t-11.5 30.5q0 11 4 23.5t6 16.5q30 -3 54.5 -4t56.5 -3h18q32 -1 68 -1.5t80 -0.5zM134 40l-5 625q5 2 17 4.5
t25 2.5q17 0 26.5 -8.5t9.5 -25.5l-3 -471z" />
    <glyph glyph-name="zah.ar.init" unicode="&#x638;" horiz-adv-x="657" arabic-form="initial" 
d="M284 79q114 0 175 25.5t61 84.5q0 47 -34 76.5t-87 29.5q-27 0 -57.5 -9t-63.5 -33.5t-64.5 -70.5t-59.5 -120l-80 5l29 73l46 66q39 81 104.5 124.5t149.5 43.5q58 0 101 -23t67 -64.5t24 -97.5q0 -94 -75 -141.5t-236 -47.5h-79.5h-85.5h-76h-51v80h123l16 -1h71h82z
M96 61l-6 604q5 2 16.5 4.5t23.5 2.5q20 0 29.5 -8.5t9.5 -25.5l-2 -505zM374 451q-23 0 -37 14t-14 37t14 37t37 14t37 -14t14 -37t-14 -37t-37 -14z" />
    <glyph glyph-name="zah.ar.medi" unicode="&#x638;" horiz-adv-x="694" arabic-form="medial" 
d="M692 0q-60 0 -96 17.5t-52 46.5t-16 64l46 81q0 -50 11.5 -78t38 -39.5t69.5 -11.5h9v-80h-10zM702 0v80q4 -6 7 -16t3 -24t-3.5 -24.5t-6.5 -15.5zM284 79q114 0 175 25.5t61 84.5q0 47 -34 76.5t-87 29.5q-27 0 -57.5 -9t-63.5 -33.5t-64.5 -70.5t-59.5 -120l-80 5
l29 73l46 66q39 81 104.5 124.5t149.5 43.5q58 0 101 -23t67 -64.5t24 -97.5q0 -94 -75 -141.5t-236 -47.5h-79.5h-85.5h-76h-51v80h123l16 -1h71h82zM96 61l-6 604q5 2 16.5 4.5t23.5 2.5q20 0 29.5 -8.5t9.5 -25.5l-2 -505zM374 451q-23 0 -37 14t-14 37t14 37t37 14
t37 -14t14 -37t-14 -37t-37 -14z" />
    <glyph glyph-name="zah.ar.fina" unicode="&#x638;" horiz-adv-x="733" arabic-form="final" 
d="M731 0q-60 0 -96 17.5t-52 46.5t-16 64l46 81q0 -50 11.5 -78t38 -39.5t69.5 -11.5h9v-80h-10zM741 0v80q4 -6 7 -16t3 -24t-3.5 -24.5t-6.5 -15.5zM323 79q114 0 175 25.5t61 84.5q0 47 -34 76.5t-87 29.5q-27 0 -57.5 -9t-63.5 -33.5t-64.5 -70.5t-59.5 -120l-75 14
l25 64l45 66q40 81 105 124.5t149 43.5q57 0 100.5 -22.5t67.5 -64t24 -98.5q0 -94 -74.5 -141.5t-246.5 -47.5q-85 0 -142.5 1.5t-89.5 4.5q-22 2 -33.5 11.5t-11.5 30.5q0 11 4 23.5t6 16.5q30 -3 54.5 -4t56.5 -3h18q32 -1 68 -1.5t80 -0.5zM134 40l-5 625q5 2 17 4.5
t25 2.5q17 0 26.5 -8.5t9.5 -25.5l-3 -471zM413 451q-23 0 -37 14t-14 37t14 37t37 14t37 -14t14 -37t-14 -37t-37 -14z" />
    <glyph glyph-name="uni1D25.ar.init" unicode="&#x639;" horiz-adv-x="487" arabic-form="initial" 
d="M221 88q31 1 69.5 7t74 15.5t57.5 18.5q6 -6 12 -17.5t6 -25.5q0 -21 -14 -31.5t-44 -20.5q-18 -6 -44.5 -12t-63.5 -11t-86 -8t-112 -3h-84v80h164zM185 47q-58 16 -89 58t-31 109q0 46 22 84t64 61t103 23q65 0 102 -25.5t37 -54.5q0 -13 -6.5 -24t-17.5 -22
q-24 24 -51.5 38t-61.5 14q-58 0 -86.5 -29t-28.5 -70q0 -52 31.5 -84t81.5 -37z" />
    <glyph glyph-name="uni1D25.ar.medi" unicode="&#x639;" horiz-adv-x="571" arabic-form="medial" 
d="M-8 0v80h68q47 0 98.5 6.5t97.5 22.5l53 -52q-26 -14 -64.5 -27t-86 -21.5t-102.5 -8.5h-64zM328 102l-47 17q37 15 68.5 31t51 35t19.5 42q0 36 -31 53t-102 17q-41 0 -83 -7t-74 -18q27 -24 59.5 -53t68 -58.5t70.5 -58.5zM362 96q14 -6 31 -9.5t37.5 -5t44.5 -1.5h104
v-80h-62q-32 0 -74 4.5t-87.5 20t-90.5 49.5zM262 64l-24 20q-44 34 -87 70t-90 80q-1 7 -1 14.5v14.5q0 21 2 40t5 29q35 16 92 30t122 14q111 0 162.5 -35t51.5 -106q0 -33 -15 -60.5t-45.5 -51t-75.5 -44.5zM579 0v80q4 -6 7 -16t3 -24t-3.5 -24.5t-6.5 -15.5z" />
    <glyph glyph-name="uni1D25.ar.fina" unicode="&#x639;" horiz-adv-x="564" arabic-form="final" 
d="M338 102l-47 17q37 15 68.5 31t51 35t19.5 42q0 36 -31 53t-102 17q-41 0 -83 -7t-74 -18q27 -24 59.5 -53t68 -58.5t70.5 -58.5zM272 64l-24 20q-44 34 -87 70t-90 80q-1 7 -1 14.5v14.5q0 21 2 40t5 29q35 16 92 30t122 14q111 0 162.5 -35t51.5 -106q0 -33 -15 -60.5
t-45.5 -51t-75.5 -44.5zM332 64q-108 -16 -162 -60.5t-54 -111.5q0 -71 47 -108.5t129 -37.5q76 0 121.5 24.5t72.5 52.5q11 -9 20.5 -20.5t9.5 -28.5q0 -19 -18 -38.5t-49 -34.5t-72 -24.5t-88 -9.5q-71 0 -128 25t-90 74t-33 119q0 87 57 144.5t163 94.5zM377 96
q14 -6 31 -9.5t37.5 -5t44.5 -1.5h82v-80h-40q-32 0 -74 4.5t-87.5 20t-90.5 49.5zM572 0v80q4 -6 7 -16t3 -24t-3.5 -24.5t-6.5 -15.5z" />
    <glyph glyph-name="ghain.ar.init" unicode="&#x63a;" horiz-adv-x="487" arabic-form="initial" 
d="M221 88q31 1 69.5 7t74 15.5t57.5 18.5q6 -6 12 -17.5t6 -25.5q0 -21 -14 -31.5t-44 -20.5q-18 -6 -44.5 -12t-63.5 -11t-86 -8t-112 -3h-84v80h164zM185 47q-58 16 -89 58t-31 109q0 46 22 84t64 61t103 23q65 0 102 -25.5t37 -54.5q0 -13 -6.5 -24t-17.5 -22
q-24 24 -51.5 38t-61.5 14q-58 0 -86.5 -29t-28.5 -70q0 -52 31.5 -84t81.5 -37zM236 459q-23 0 -37 14t-14 37t14 37t37 14t37 -14t14 -37t-14 -37t-37 -14z" />
    <glyph glyph-name="ghain.ar.medi" unicode="&#x63a;" horiz-adv-x="571" arabic-form="medial" 
d="M-8 0v80h68q47 0 98.5 6.5t97.5 22.5l53 -52q-26 -14 -64.5 -27t-86 -21.5t-102.5 -8.5h-64zM328 102l-47 17q37 15 68.5 31t51 35t19.5 42q0 36 -31 53t-102 17q-41 0 -83 -7t-74 -18q27 -24 59.5 -53t68 -58.5t70.5 -58.5zM362 96q14 -6 31 -9.5t37.5 -5t44.5 -1.5h104
v-80h-62q-32 0 -74 4.5t-87.5 20t-90.5 49.5zM262 64l-24 20q-44 34 -87 70t-90 80q-1 7 -1 14.5v14.5q0 21 2 40t5 29q35 16 92 30t122 14q111 0 162.5 -35t51.5 -106q0 -33 -15 -60.5t-45.5 -51t-75.5 -44.5zM579 0v80q4 -6 7 -16t3 -24t-3.5 -24.5t-6.5 -15.5zM281 453
q-23 0 -37 14t-14 37t14 37t37 14t37 -14t14 -37t-14 -37t-37 -14z" />
    <glyph glyph-name="ghain.ar.fina" unicode="&#x63a;" horiz-adv-x="564" arabic-form="final" 
d="M338 102l-47 17q37 15 68.5 31t51 35t19.5 42q0 36 -31 53t-102 17q-41 0 -83 -7t-74 -18q27 -24 59.5 -53t68 -58.5t70.5 -58.5zM272 64l-24 20q-44 34 -87 70t-90 80q-1 7 -1 14.5v14.5q0 21 2 40t5 29q35 16 92 30t122 14q111 0 162.5 -35t51.5 -106q0 -33 -15 -60.5
t-45.5 -51t-75.5 -44.5zM332 64q-108 -16 -162 -60.5t-54 -111.5q0 -71 47 -108.5t129 -37.5q76 0 121.5 24.5t72.5 52.5q11 -9 20.5 -20.5t9.5 -28.5q0 -19 -18 -38.5t-49 -34.5t-72 -24.5t-88 -9.5q-71 0 -128 25t-90 74t-33 119q0 87 57 144.5t163 94.5zM377 96
q14 -6 31 -9.5t37.5 -5t44.5 -1.5h82v-80h-40q-32 0 -74 4.5t-87.5 20t-90.5 49.5zM572 0v80q4 -6 7 -16t3 -24t-3.5 -24.5t-6.5 -15.5zM288 453q-23 0 -37 14t-14 37t14 37t37 14t37 -14t14 -37t-14 -37t-37 -14z" />
    <glyph glyph-name="feh.ar.init" unicode="&#x641;" horiz-adv-x="436" arabic-form="initial" 
d="M8 0h-16v80h25q66 0 121.5 11t94 27t53.5 31q2 15 4.5 43.5t1.5 50.5l17 -21q-19 -7 -48 -12t-55 -5q-88 0 -135 41t-47 116q0 50 21.5 89t58 61t81.5 22q66 0 105 -36t56.5 -98t17.5 -142q0 -75 -14 -122t-62 -74q-56 -30 -128 -46t-152 -16zM211 283q21 0 43 2.5
t39 7.5q-8 86 -35 124.5t-74 38.5q-37 0 -61 -27t-24 -65q0 -40 28.5 -61t83.5 -20zM192 611q-23 0 -37 14t-14 37t14 37t37 14t37 -14t14 -37t-14 -37t-37 -14z" />
    <glyph glyph-name="feh.ar.medi" unicode="&#x641;" horiz-adv-x="476" arabic-form="medial" 
d="M468 0q-89 -1 -145.5 15.5t-98.5 46.5h39q-26 -19 -66.5 -33t-86 -21.5t-87.5 -7.5h-31v80h42q27 0 59 2t60.5 6.5t43.5 10.5l-19 -21q-36 17 -66.5 54.5t-30.5 97.5q0 49 21 86.5t57 59.5t82 22t82.5 -22t57.5 -59.5t21 -86.5q0 -40 -14.5 -70t-36.5 -50t-46 -32l-28 23
q48 -13 87 -17t95 -4h25v-80h-16zM241 115q35 15 60.5 42t25.5 72q0 38 -25.5 64t-60.5 26q-34 0 -59.5 -26t-25.5 -64q0 -45 25 -73t60 -41zM484 0v80q4 -6 7 -16t3 -24t-3.5 -24.5t-6.5 -15.5zM241 475q-23 0 -37 14t-14 37t14 37t37 14t37 -14t14 -37t-14 -37t-37 -14z
" />
    <glyph glyph-name="feh.ar.fina" unicode="&#x641;" horiz-adv-x="846" arabic-form="final" 
d="M367 -16q-156 0 -230.5 65t-74.5 176q0 65 15 92.5t40 27.5q12 0 21 -2.5t15 -6.5q-5 -24 -9 -44.5t-4 -48.5q0 -95 58.5 -137.5t177.5 -42.5q55 0 100.5 8.5t81.5 19.5l79 -42q-36 -21 -106 -43t-164 -22zM842 0q-88 0 -145 13.5t-99 38.5l-46 26q-25 13 -48.5 34.5
t-38.5 53.5t-15 74q0 52 21.5 92t59 63t84.5 23q48 0 85.5 -23t59 -63t21.5 -92q0 -42 -15.5 -74t-38.5 -53.5t-48 -34.5l-28 23q48 -13 87 -17t95 -4h22v-80h-13zM616 115q37 17 63.5 46t26.5 78q0 43 -26.5 71.5t-64.5 28.5q-37 0 -63.5 -28.5t-26.5 -71.5q0 -49 26.5 -79
t64.5 -45zM854 0v80q4 -6 7 -16t3 -24t-3.5 -24.5t-6.5 -15.5zM615 495q-23 0 -37 14t-14 37t14 37t37 14t37 -14t14 -37t-14 -37t-37 -14z" />
    <glyph glyph-name="veh.ar.init" unicode="&#x6a4;" horiz-adv-x="436" arabic-form="initial" 
d="M8 0h-16v80h25q66 0 121.5 11t94 27t53.5 31q2 15 4.5 43.5t1.5 50.5l17 -21q-19 -7 -48 -12t-55 -5q-88 0 -135 41t-47 116q0 50 21.5 89t58 61t81.5 22q66 0 105 -36t56.5 -98t17.5 -142q0 -75 -14 -122t-62 -74q-56 -30 -128 -46t-152 -16zM211 283q21 0 43 2.5
t39 7.5q-8 86 -35 124.5t-74 38.5q-37 0 -61 -27t-24 -65q0 -40 28.5 -61t83.5 -20zM192 731q-22 0 -35 13t-13 35t13 35t35 13t35 -13t13 -35t-13 -35t-35 -13zM122 610q-23 0 -36 13.5t-13 35.5q0 23 13 36t36 13t36 -13t13 -36q0 -22 -13 -35.5t-36 -13.5zM262 610
q-23 0 -36 13.5t-13 35.5q0 23 13 36t36 13t36 -13t13 -36q0 -22 -13 -35.5t-36 -13.5z" />
    <glyph glyph-name="veh.ar.medi" unicode="&#x6a4;" horiz-adv-x="476" arabic-form="medial" 
d="M468 0q-89 -1 -145.5 15.5t-98.5 46.5h39q-26 -19 -66.5 -33t-86 -21.5t-87.5 -7.5h-31v80h42q27 0 59 2t60.5 6.5t43.5 10.5l-19 -21q-36 17 -66.5 54.5t-30.5 97.5q0 49 21 86.5t57 59.5t82 22t82.5 -22t57.5 -59.5t21 -86.5q0 -40 -14.5 -70t-36.5 -50t-46 -32l-28 23
q48 -13 87 -17t95 -4h25v-80h-16zM241 115q35 15 60.5 42t25.5 72q0 38 -25.5 64t-60.5 26q-34 0 -59.5 -26t-25.5 -64q0 -45 25 -73t60 -41zM484 0v80q4 -6 7 -16t3 -24t-3.5 -24.5t-6.5 -15.5zM241 595q-22 0 -35 13t-13 35t13 35t35 13t35 -13t13 -35t-13 -35t-35 -13z
M171 474q-23 0 -36 13.5t-13 35.5q0 23 13 36t36 13t36 -13t13 -36q0 -22 -13 -35.5t-36 -13.5zM311 474q-23 0 -36 13.5t-13 35.5q0 23 13 36t36 13t36 -13t13 -36q0 -22 -13 -35.5t-36 -13.5z" />
    <glyph glyph-name="veh.ar.fina" unicode="&#x6a4;" horiz-adv-x="846" arabic-form="final" 
d="M367 -16q-156 0 -230.5 65t-74.5 176q0 65 15 92.5t40 27.5q12 0 21 -2.5t15 -6.5q-5 -24 -9 -44.5t-4 -48.5q0 -95 58.5 -137.5t177.5 -42.5q55 0 100.5 8.5t81.5 19.5l79 -42q-36 -21 -106 -43t-164 -22zM842 0q-88 0 -145 13.5t-99 38.5l-46 26q-25 13 -48.5 34.5
t-38.5 53.5t-15 74q0 52 21.5 92t59 63t84.5 23q48 0 85.5 -23t59 -63t21.5 -92q0 -42 -15.5 -74t-38.5 -53.5t-48 -34.5l-28 23q48 -13 87 -17t95 -4h22v-80h-13zM616 115q37 17 63.5 46t26.5 78q0 43 -26.5 71.5t-64.5 28.5q-37 0 -63.5 -28.5t-26.5 -71.5q0 -49 26.5 -79
t64.5 -45zM854 0v80q4 -6 7 -16t3 -24t-3.5 -24.5t-6.5 -15.5zM615 615q-22 0 -35 13t-13 35t13 35t35 13t35 -13t13 -35t-13 -35t-35 -13zM545 494q-23 0 -36 13.5t-13 35.5q0 23 13 36t36 13t36 -13t13 -36q0 -22 -13 -35.5t-36 -13.5zM685 494q-23 0 -36 13.5t-13 35.5
q0 23 13 36t36 13t36 -13t13 -36q0 -22 -13 -35.5t-36 -13.5z" />
    <glyph glyph-name="qaf.ar.init" unicode="&#x642;" horiz-adv-x="436" arabic-form="initial" 
d="M8 0h-16v80h25q66 0 121.5 11t94 27t53.5 31q2 15 4.5 43.5t1.5 50.5l17 -21q-19 -7 -48 -12t-55 -5q-88 0 -135 41t-47 116q0 50 21.5 89t58 61t81.5 22q66 0 105 -36t56.5 -98t17.5 -142q0 -75 -14 -122t-62 -74q-56 -30 -128 -46t-152 -16zM211 283q21 0 43 2.5
t39 7.5q-8 86 -35 124.5t-74 38.5q-37 0 -61 -27t-24 -65q0 -40 28.5 -61t83.5 -20zM122 610q-23 0 -36 13.5t-13 35.5q0 23 13 36t36 13t36 -13t13 -36q0 -22 -13 -35.5t-36 -13.5zM262 610q-23 0 -36 13.5t-13 35.5q0 23 13 36t36 13t36 -13t13 -36q0 -22 -13 -35.5
t-36 -13.5z" />
    <glyph glyph-name="qaf.ar.medi" unicode="&#x642;" horiz-adv-x="476" arabic-form="medial" 
d="M468 0q-89 -1 -145.5 15.5t-98.5 46.5h39q-26 -19 -66.5 -33t-86 -21.5t-87.5 -7.5h-31v80h42q27 0 59 2t60.5 6.5t43.5 10.5l-19 -21q-36 17 -66.5 54.5t-30.5 97.5q0 49 21 86.5t57 59.5t82 22t82.5 -22t57.5 -59.5t21 -86.5q0 -40 -14.5 -70t-36.5 -50t-46 -32l-28 23
q48 -13 87 -17t95 -4h25v-80h-16zM241 115q35 15 60.5 42t25.5 72q0 38 -25.5 64t-60.5 26q-34 0 -59.5 -26t-25.5 -64q0 -45 25 -73t60 -41zM484 0v80q4 -6 7 -16t3 -24t-3.5 -24.5t-6.5 -15.5zM171 474q-23 0 -36 13.5t-13 35.5q0 23 13 36t36 13t36 -13t13 -36
q0 -22 -13 -35.5t-36 -13.5zM311 474q-23 0 -36 13.5t-13 35.5q0 23 13 36t36 13t36 -13t13 -36q0 -22 -13 -35.5t-36 -13.5z" />
    <glyph glyph-name="qaf.ar.fina" unicode="&#x642;" horiz-adv-x="672" arabic-form="final" 
d="M602 0l12 80h66v-80h-78zM465 252q-37 0 -61 -27t-24 -65q0 -40 28.5 -60.5t83.5 -20.5h72q0 95 -28 134t-71 39zM466 330q62 0 100.5 -35t57 -94t18.5 -132q0 -85 -33.5 -150t-101 -101.5t-170.5 -36.5q-133 0 -209 64t-76 184q0 73 20 105.5t46 32.5q12 0 21.5 -3
t15.5 -8q-9 -22 -17 -49.5t-8 -71.5q0 -93 57 -134t153 -41q62 0 110.5 18.5t78 56.5t34.5 96l17 -31l-93 1q-59 1 -99.5 19t-61.5 53t-21 85t21.5 89t58 61t81.5 22zM680 0v80q4 -6 7 -16t3 -24t-3.5 -24.5t-6.5 -15.5zM403 406q-23 0 -36 13.5t-13 35.5q0 23 13 36t36 13
t36 -13t13 -36q0 -22 -13 -35.5t-36 -13.5zM543 406q-23 0 -36 13.5t-13 35.5q0 23 13 36t36 13t36 -13t13 -36q0 -22 -13 -35.5t-36 -13.5z" />
    <glyph glyph-name="uni05DB.ar.init" unicode="&#x643;" horiz-adv-x="424" arabic-form="initial" 
d="M310 144q0 -36 -24.5 -63t-64.5 -45t-87.5 -27t-92.5 -9h-49v80h56q47 0 90.5 11.5t71.5 28t28 29.5q0 23 -15 52t-39 61t-51.5 62.5t-53 56t-43.5 41.5q-3 10 -4 19.5t-1 18.5q0 8 1.5 17.5t4.5 19.5l326 160q8 4 16.5 6.5t15.5 2.5q13 0 22.5 -5.5t16 -17t8.5 -29.5
l-363 -175l10 34q20 -18 48.5 -46.5t58.5 -63.5t56 -73t42 -75.5t16 -70.5z" />
    <glyph glyph-name="uni05DB.ar.medi" unicode="&#x643;" horiz-adv-x="427" arabic-form="medial" 
d="M280 125q-22 -56 -84.5 -90.5t-148.5 -34.5h-55v80h46q76 0 127 24t68 61zM398 0q-28 0 -52 9t-45.5 30t-42.5 57l-8 9q-13 25 -38.5 65t-57.5 86.5t-63.5 90t-55.5 75.5q-3 10 -4 19.5t-1 18.5q0 8 1.5 17.5t4.5 19.5l330 160q8 4 16.5 6.5t15.5 2.5q13 0 22.5 -5.5
t16 -17t8.5 -29.5l-365 -173l12 32q26 -34 56 -77t60 -87.5t54.5 -82t38.5 -59.5q24 -37 40 -56t31 -25t35 -6h27v-80h-36zM434 1v80q4 -6 7 -16t3 -24t-3.5 -24.5t-6.5 -15.5z" />
    <glyph glyph-name="uni05DB.ar.fina" unicode="&#x643;" horiz-adv-x="768" arabic-form="final" 
d="M357 -16q-151 0 -223 57t-72 154q0 59 15 84.5t40 25.5q12 0 21 -2.5t15 -6.5q-5 -22 -9 -40t-4 -43q0 -53 27 -86t77.5 -48.5t121.5 -15.5q63 0 115.5 12t90.5 30t54 37l22 -70q-27 -25 -73.5 -45t-103 -31.5t-114.5 -11.5zM325 244q-18 0 -26.5 8.5t-9.5 21.5t3 24
q62 4 99 15.5t37 18.5q0 5 -7 6t-20 3l-37 6q-27 5 -43.5 19.5t-16.5 43.5q0 23 11 37.5t30 27.5q14 9 31 14t29 5q24 0 31 -11.5t7 -34.5q-43 -10 -64 -19t-21 -17q0 -4 3.5 -6.5t13.5 -4.5l29 -5q33 -6 54 -19.5t21 -45.5q0 -18 -6.5 -31t-23.5 -24q-19 -12 -56 -22
t-68 -10zM776 -1v80q4 -6 7 -16t3 -24t-3.5 -24.5t-6.5 -15.5zM681 638l-1 -492q0 -37 20 -51.5t57 -14.5h19v-81l-26 1q-39 2 -71.5 15t-52 44t-20.5 84l-4 522q5 2 16.5 4.5t23.5 2.5q20 0 29.5 -8.5t9.5 -25.5z" />
    <glyph glyph-name="keheh.ar.init" unicode="&#x6a9;" horiz-adv-x="424" arabic-form="initial" 
d="M310 144q0 -36 -24.5 -63t-64.5 -45t-87.5 -27t-92.5 -9h-49v80h56q47 0 90.5 11.5t71.5 28t28 29.5q0 23 -15 52t-39 61t-51.5 62.5t-53 56t-43.5 41.5q-3 10 -4 19.5t-1 18.5q0 8 1.5 17.5t4.5 19.5l326 160q8 4 16.5 6.5t15.5 2.5q13 0 22.5 -5.5t16 -17t8.5 -29.5
l-363 -175l10 34q20 -18 48.5 -46.5t58.5 -63.5t56 -73t42 -75.5t16 -70.5z" />
    <glyph glyph-name="keheh.ar.medi" unicode="&#x6a9;" horiz-adv-x="427" arabic-form="medial" 
d="M280 125q-22 -56 -84.5 -90.5t-148.5 -34.5h-55v80h46q76 0 127 24t68 61zM398 0q-28 0 -52 9t-45.5 30t-42.5 57l-8 9q-13 25 -38.5 65t-57.5 86.5t-63.5 90t-55.5 75.5q-3 10 -4 19.5t-1 18.5q0 8 1.5 17.5t4.5 19.5l330 160q8 4 16.5 6.5t15.5 2.5q13 0 22.5 -5.5
t16 -17t8.5 -29.5l-365 -173l12 32q26 -34 56 -77t60 -87.5t54.5 -82t38.5 -59.5q24 -37 40 -56t31 -25t35 -6h27v-80h-36zM434 1v80q4 -6 7 -16t3 -24t-3.5 -24.5t-6.5 -15.5z" />
    <glyph glyph-name="keheh.ar.fina" unicode="&#x6a9;" horiz-adv-x="836" arabic-form="final" 
d="M807 0q-28 0 -52 9t-45.5 30t-42.5 57l-8 9q-13 25 -38.5 65t-57.5 86.5t-63.5 90t-55.5 75.5q-3 10 -4 19.5t-1 18.5q0 8 1.5 17.5t4.5 19.5l330 160q8 4 16.5 6.5t15.5 2.5q13 0 22.5 -5.5t16 -17t8.5 -29.5l-365 -173l12 32q26 -34 56 -77t60 -87.5t54.5 -82
t38.5 -59.5q24 -37 40 -56t31 -25t35 -6h26v-80h-35zM394 64q60 0 111 13.5t87.5 35.5t52.5 48l46 -54q-18 -28 -56 -56.5t-99 -47.5t-149 -19q-170 0 -247.5 65t-77.5 176q0 65 15 92.5t40 27.5q12 0 21 -2.5t15 -6.5q-5 -24 -9 -44.5t-4 -48.5q0 -63 28.5 -102.5t85 -58
t140.5 -18.5zM842 0v80q4 -6 7 -16t3 -24t-3.5 -24.5t-6.5 -15.5z" />
    <glyph glyph-name="gaf.ar.init" unicode="&#x6af;" horiz-adv-x="424" arabic-form="initial" 
d="M310 144q0 -36 -24.5 -63t-64.5 -45t-87.5 -27t-92.5 -9h-49v80h56q47 0 90.5 11.5t71.5 28t28 29.5q0 23 -15 52t-39 61t-51.5 62.5t-53 56t-43.5 41.5q-3 10 -4 19.5t-1 18.5q0 8 1.5 17.5t4.5 19.5l326 160q8 4 16.5 6.5t15.5 2.5q13 0 22.5 -5.5t16 -17t8.5 -29.5
l-363 -175l10 34q20 -18 48.5 -46.5t58.5 -63.5t56 -73t42 -75.5t16 -70.5zM376 748l-262 -128q-8 -4 -14 -5.5t-12 -1.5q-16 0 -24.5 11t-8.5 30l257 127q20 9 32 9q13 0 22 -10.5t10 -31.5z" />
    <glyph glyph-name="gaf.ar.medi" unicode="&#x6af;" horiz-adv-x="427" arabic-form="medial" 
d="M280 125q-22 -56 -84.5 -90.5t-148.5 -34.5h-55v80h46q76 0 127 24t68 61zM398 0q-28 0 -52 9t-45.5 30t-42.5 57l-8 9q-13 25 -38.5 65t-57.5 86.5t-63.5 90t-55.5 75.5q-3 10 -4 19.5t-1 18.5q0 8 1.5 17.5t4.5 19.5l330 160q8 4 16.5 6.5t15.5 2.5q13 0 22.5 -5.5
t16 -17t8.5 -29.5l-365 -173l12 32q26 -34 56 -77t60 -87.5t54.5 -82t38.5 -59.5q24 -37 40 -56t31 -25t35 -6h27v-80h-36zM434 1v80q4 -6 7 -16t3 -24t-3.5 -24.5t-6.5 -15.5zM375 747l-262 -128q-8 -4 -14 -5.5t-12 -1.5q-16 0 -24.5 11t-8.5 30l257 127q20 9 32 9
q13 0 22 -10.5t10 -31.5z" />
    <glyph glyph-name="gaf.ar.fina" unicode="&#x6af;" horiz-adv-x="836" arabic-form="final" 
d="M807 0q-28 0 -52 9t-45.5 30t-42.5 57l-8 9q-13 25 -38.5 65t-57.5 86.5t-63.5 90t-55.5 75.5q-3 10 -4 19.5t-1 18.5q0 8 1.5 17.5t4.5 19.5l330 160q8 4 16.5 6.5t15.5 2.5q13 0 22.5 -5.5t16 -17t8.5 -29.5l-365 -173l12 32q26 -34 56 -77t60 -87.5t54.5 -82
t38.5 -59.5q24 -37 40 -56t31 -25t35 -6h26v-80h-35zM394 64q60 0 111 13.5t87.5 35.5t52.5 48l46 -54q-18 -28 -56 -56.5t-99 -47.5t-149 -19q-170 0 -247.5 65t-77.5 176q0 65 15 92.5t40 27.5q12 0 21 -2.5t15 -6.5q-5 -24 -9 -44.5t-4 -48.5q0 -63 28.5 -102.5t85 -58
t140.5 -18.5zM842 0v80q4 -6 7 -16t3 -24t-3.5 -24.5t-6.5 -15.5zM785 748l-262 -128q-8 -4 -14 -5.5t-12 -1.5q-16 0 -24.5 11t-8.5 30l257 127q20 9 32 9q13 0 22 -10.5t10 -31.5z" />
    <glyph glyph-name="lam.ar.init" unicode="&#x644;" horiz-adv-x="256" arabic-form="initial" 
d="M-8 0v80h26q37 0 56.5 15t19.5 48l-4 522q5 2 16.5 4.5t23.5 2.5q39 0 39 -34l-1 -495q0 -56 -22.5 -87.5t-57 -43.5t-69.5 -12h-27z" />
    <glyph glyph-name="lam.ar.medi" unicode="&#x644;" horiz-adv-x="254" arabic-form="medial" 
d="M-8 0v80h17q16 0 35 5t33.5 20t14.5 46l-2 514q5 2 17 4.5t25 2.5q35 0 35 -35l-2 -488q0 -29 12 -44t29.5 -20t33.5 -5h22v-80h-21q-31 0 -57 10.5t-42.5 30t-19.5 46.5h8q-1 -22 -14 -42t-38 -32.5t-62 -12.5h-24zM262 0v80q4 -6 7 -16t3 -24t-3.5 -24.5t-6.5 -15.5z
" />
    <glyph glyph-name="lam.ar.fina" unicode="&#x644;" horiz-adv-x="643" arabic-form="final" 
d="M631 0q-25 0 -46 10.5t-34.5 35.5t-17.5 67l22 36q0 -29 12 -44t29.5 -20t33.5 -5h21v-80h-20zM552 62q0 -72 -30.5 -127t-86 -86t-130.5 -31q-79 0 -135.5 28.5t-87 81.5t-30.5 125q0 73 18.5 104.5t45.5 31.5q14 0 21 -3.5t13 -7.5q-9 -26 -14.5 -53t-5.5 -56
q0 -83 46.5 -127.5t132.5 -44.5q46 0 79 15t53.5 37.5t30 47t9.5 43.5l-4 625q5 2 16.5 4.5t23.5 2.5q39 0 39 -34l-1 -565zM651 0v80q4 -6 7 -16t3 -24t-3.5 -24.5t-6.5 -15.5z" />
    <glyph glyph-name="meem.ar.init" unicode="&#x645;" horiz-adv-x="552" arabic-form="initial" 
d="M-8 0v82h9q28 0 48.5 12.5t35.5 32.5t26 43q29 66 61 107t67.5 60.5t77.5 19.5q55 0 93.5 -27.5t59 -74t20.5 -104.5q0 -75 -48 -112.5t-118 -37.5q-43 0 -79.5 11.5t-64 34t-44.5 54.5l16 -9q-23 -40 -58 -65.5t-94 -26.5h-8zM325 79q38 0 65 19t27 56q0 31 -10 59.5
t-32 47t-58 18.5q-44 0 -77 -37t-55 -93q23 -32 59.5 -51t80.5 -19z" />
    <glyph glyph-name="meem.ar.medi" unicode="&#x645;" horiz-adv-x="592" arabic-form="medial" 
d="M-8 0v82h9q28 0 48.5 12.5t36 32.5t25.5 43q30 64 60.5 105.5t66 61.5t78.5 20q51 0 86.5 -22t57 -60t28.5 -87q8 -54 29.5 -81t78.5 -27h4v-80h-5q-31 0 -61 8.5t-51.5 29t-28.5 54.5l9 -8q-8 -35 -46 -59t-98 -24q-42 0 -79 13t-63.5 36t-40.5 51l16 -9
q-23 -40 -58 -66t-94 -26h-8zM325 79q38 0 65 19t27 56q0 31 -10 59.5t-32 47t-59 18.5q-44 0 -76.5 -37t-54.5 -93q23 -32 59.5 -51t80.5 -19zM600 0v80q4 -6 7 -16t3 -24t-3.5 -24.5t-6.5 -15.5z" />
    <glyph glyph-name="meem.ar.fina" unicode="&#x645;" horiz-adv-x="619" arabic-form="final" 
d="M77 -336q-17 0 -26 8.5t-9 26.5v282q0 56 11 90.5t32.5 57t51.5 39.5q30 64 60 105.5t65 62t78 20.5q51 0 87.5 -22t58.5 -60.5t29 -87.5q8 -53 29.5 -79.5t78.5 -26.5h4v-80h-5q-34 0 -66 9t-54.5 30.5t-30.5 58.5l28 -9q-8 -32 -48 -60.5t-102 -28.5q-59 0 -106 25
t-85 72l19 3q-36 -19 -48 -44t-12 -75v-310q-5 -2 -16 -4.5t-24 -2.5zM352 78q39 0 65.5 20t26.5 57q0 32 -11 60t-33.5 45.5t-59.5 17.5q-43 0 -74.5 -37t-53.5 -92q23 -33 59 -52t81 -19zM627 0v80q4 -6 7 -16t3 -24t-3.5 -24.5t-6.5 -15.5z" />
    <glyph glyph-name="noon.ar.init" unicode="&#x646;" horiz-adv-x="299" arabic-form="initial" 
d="M-8 0v80h16q31 0 62.5 5t56.5 13t38 17q0 43 -6 89.5t-15 90t-18 76.5q8 5 19 9.5t24 4.5q18 0 30 -11.5t18 -40.5q4 -18 8.5 -49t8 -66t3.5 -65q0 -46 -8 -70t-37 -42q-30 -19 -80.5 -30t-103.5 -11h-16zM155 463q-23 0 -37 14t-14 37t14 37t37 14t37 -14t14 -37
t-14 -37t-37 -14z" />
    <glyph glyph-name="noon.ar.medi" unicode="&#x646;" horiz-adv-x="301" arabic-form="medial" 
d="M-8 0v80h16q53 0 79 23t27 73l2 122q4 2 14 5t21 3q16 0 25 -8.5t9 -23.5l2 -103q1 -46 27.5 -68.5t78.5 -22.5h16v-80h-18q-36 0 -65 10t-48.5 30t-28.5 50h5q-3 -29 -24.5 -49t-53.5 -30.5t-67 -10.5h-17zM309 0v80q4 -6 7 -16t3 -24t-3.5 -24.5t-6.5 -15.5zM151 383
q-23 0 -37 14t-14 37t14 37t37 14t37 -14t14 -37t-14 -37t-37 -14z" />
    <glyph glyph-name="noon.ar.fina" unicode="&#x646;" horiz-adv-x="655" arabic-form="final" 
d="M505 13q-5 38 -14 78t-21 83t-27 88q5 5 16.5 11t27.5 6q17 0 28 -11t20 -41q17 -58 28 -117.5t11 -94.5q-2 -63 -33.5 -116.5t-88 -85.5t-137.5 -32q-83 0 -142 31.5t-90 90t-31 138.5t19 114t44 34q12 0 21 -3t16 -8q-9 -25 -15.5 -54t-6.5 -67q0 -96 48 -146.5
t141 -50.5q54 0 95 21t64.5 56t26.5 76zM646 0q-36 0 -59 17t-38 51v101q8 -39 22.5 -58t34 -25t40.5 -6h17v-80h-17zM663 0v80q4 -6 7 -16t3 -24t-3.5 -24.5t-6.5 -15.5zM303 247q-23 0 -37 14t-14 37t14 37t37 14t37 -14t14 -37t-14 -37t-37 -14z" />
    <glyph glyph-name="noonghunna.ar.fina" unicode="&#x6ba;" horiz-adv-x="655" arabic-form="final" 
d="M505 13q-5 38 -14 78t-21 83t-27 88q5 5 16.5 11t27.5 6q17 0 28 -11t20 -41q17 -58 28 -117.5t11 -94.5q-2 -63 -33.5 -116.5t-88 -85.5t-137.5 -32q-83 0 -142 31.5t-90 90t-31 138.5t19 114t44 34q12 0 21 -3t16 -8q-9 -25 -15.5 -54t-6.5 -67q0 -96 48 -146.5
t141 -50.5q54 0 95 21t64.5 56t26.5 76zM646 0q-36 0 -59 17t-38 51v101q8 -39 22.5 -58t34 -25t40.5 -6h17v-80h-17zM663 0v80q4 -6 7 -16t3 -24t-3.5 -24.5t-6.5 -15.5z" />
    <glyph glyph-name="heh.ar.fina" unicode="&#x647;" horiz-adv-x="455" arabic-form="final" 
d="M314 116l42 -23q-17 -23 -50.5 -39.5t-85.5 -16.5q-82 0 -127.5 39t-45.5 112q0 36 13.5 67.5t47 58.5t93.5 51l112 44v-80l-94 -35q-54 -20 -75 -45t-21 -56q0 -35 25 -55t74 -21q35 0 59.5 9.5t43.5 22.5l-21 -57v348q0 33 37 33q11 0 22 -2.5t16 -4.5v-320
q0 -37 20 -51.5t57 -14.5h7v-80h-12q-51 0 -90 26t-47 90zM463 0v80q4 -6 7 -16t3 -24t-3.5 -24.5t-6.5 -15.5z" />
    <glyph glyph-name="heh.ar.medi" unicode="&#x647;" horiz-adv-x="442" arabic-form="medial" 
d="M266 -244q-64 0 -108.5 33t-67.5 92.5t-23 136.5v47q5 107 35 174t75.5 98.5t96.5 31.5q52 0 82 -21.5t43 -54t13 -65.5q0 -38 -17 -73.5t-48 -60.5t-72 -31v-37q71 -10 107 -48.5t36 -92.5q0 -39 -18 -68t-52 -45t-82 -16zM265 -169q32 0 54.5 17t22.5 47q0 45 -27 68
t-72 30t-98 5q4 -82 36 -124.5t84 -42.5zM-8 0v80h91l82 -16q55 4 130.5 10t157.5 6h15v-80h-15q-55 0 -107 5t-98 12.5t-83 12.5l-82 -30h-91zM145 79h17q56 1 94.5 21t58.5 51t20 65q0 33 -18.5 53.5t-48.5 20.5q-52 0 -84 -52t-39 -159zM468 0v80q4 -6 7 -16t3 -24
t-3.5 -24.5t-6.5 -15.5z" />
    <glyph glyph-name="heh.ar.init" unicode="&#x647;" horiz-adv-x="571" arabic-form="initial" 
d="M344 -13q-46 0 -88 11.5t-80 33.5l59 20q-26 -19 -65.5 -30.5t-78.5 -16.5t-66 -5h-33v80h44q17 0 42 1t50.5 3t40.5 5l-28 -24q-35 25 -61.5 63.5t-26.5 96.5q0 48 20.5 81.5t57 51t82.5 17.5l82 -37q21 -12 35.5 -29.5t22.5 -39.5t8 -49q0 -61 -30.5 -101t-73.5 -61
l-19 22q18 -10 46 -15t60 -5q31 0 56.5 10t40.5 30.5t15 52.5q0 51 -39.5 97t-119.5 84l-86 31q0 15 3.5 26.5t9.5 20t11 13.5q99 -28 164 -71.5t97.5 -97.5t32.5 -114q0 -45 -21 -80t-62.5 -55t-101.5 -20zM222 86l-36 8q26 10 49.5 24t38.5 39.5t15 67.5q0 44 -24 66.5
t-57 22.5t-57 -22.5t-24 -66.5q0 -35 13.5 -61t35.5 -44.5t46 -33.5z" />
    <glyph glyph-name="hehgoal.ar.init" unicode="&#x6c1;" horiz-adv-x="299" arabic-form="initial" 
d="M153 -234q-20 0 -31 20.5t-11 66.5q0 45 10.5 64.5t36.5 19.5q9 0 19 -2q0 -14 1.5 -34.5t4 -43t4.5 -42.5t4 -34q-5 -7 -15.5 -11t-22.5 -4zM-8 0v80h16q31 0 62.5 5t56.5 13t38 17q0 43 -6 89.5t-15 90t-18 76.5q8 5 19 9.5t24 4.5q18 0 30 -11.5t18 -40.5
q4 -18 8.5 -49t8 -66t3.5 -65q0 -46 -8 -70t-37 -42q-30 -19 -80.5 -30t-103.5 -11h-16z" />
    <glyph glyph-name="hehgoal.ar.medi" unicode="&#x6c1;" horiz-adv-x="433" arabic-form="medial" 
d="M117 155q15 32 21 50.5t13 37.5q9 0 22.5 -3t24 -11.5t10.5 -25.5q0 -14 -7 -34.5t-14 -52t-7 -79.5q0 -61 15 -101.5t41.5 -62.5t60.5 -29q-11 22 -21.5 52t-10.5 70q0 41 17 66t44.5 36.5t60.5 11.5h54v-80h-49q-23 0 -37 -10t-14 -39q0 -23 5.5 -48t14 -50.5
t17.5 -49.5q-6 -8 -21 -15t-42 -7q-67 0 -115.5 30t-74.5 90t-26 150q0 7 2.5 18t5 19.5t1.5 6.5q0 2 0.5 3.5t0.5 3.5l14 -4l-2 -37q-10 -27 -37 -44t-75 -17h-17v80h20q42 0 65 20t40 55zM441 0v80q4 -6 7 -16t3 -24t-3.5 -24.5t-6.5 -15.5z" />
    <glyph glyph-name="hehgoal.ar.fina" unicode="&#x6c1;" horiz-adv-x="514" arabic-form="final" 
d="M506 0q-29 0 -48.5 5.5t-42 25t-61.5 59.5q-28 29 -47 38.5t-42 9.5q-27 0 -57.5 -18.5t-59.5 -47.5t-55 -62q-18 8 -29 22.5t-11 27.5q0 21 19.5 48t51.5 52.5t69.5 42.5t73.5 17q26 0 48.5 -6.5t45 -21t46.5 -39.5q34 -34 51.5 -49.5t28.5 -19.5t25 -4h10v-80h-16z
M522 0v80q4 -6 7 -16t3 -24t-3.5 -24.5t-6.5 -15.5z" />
    <glyph glyph-name="hehgoalHamzaabove.ar.fina" unicode="&#x6c2;" horiz-adv-x="514" 
d="M506 0q-29 0 -48.5 5.5t-42 25t-61.5 59.5q-28 29 -47 38.5t-42 9.5q-27 0 -57.5 -18.5t-59.5 -47.5t-55 -62q-18 8 -29 22.5t-11 27.5q0 21 19.5 48t51.5 52.5t69.5 42.5t73.5 17q26 0 48.5 -6.5t45 -21t46.5 -39.5q34 -34 51.5 -49.5t28.5 -19.5t25 -4h10v-80h-16z
M522 0v80q4 -6 7 -16t3 -24t-3.5 -24.5t-6.5 -15.5zM266 488q29 0 45.5 -11t16.5 -28q0 -9 -5 -16.5t-10 -11.5q-9 7 -19 11t-25 4q-22 0 -31.5 -9t-9.5 -22q0 -14 10.5 -25t32.5 -13l-58 -11q-15 5 -26.5 19.5t-11.5 38.5q0 36 26.5 55t64.5 19zM343 385q3 -4 5.5 -13
t2.5 -17t-5.5 -14t-16.5 -9q-35 -6 -84 -14t-91 -19q-4 5 -7 12.5t-3 15.5q0 10 6.5 16.5t21.5 10.5q26 7 59.5 13t64.5 11t47 7z" />
    <glyph glyph-name="hehDoachashmee.ar.init" unicode="&#x6be;" horiz-adv-x="571" arabic-form="initial" 
d="M344 -13q-46 0 -88 11.5t-80 33.5l59 20q-26 -19 -65.5 -30.5t-78.5 -16.5t-66 -5h-33v80h44q17 0 42 1t50.5 3t40.5 5l-28 -24q-35 25 -61.5 63.5t-26.5 96.5q0 48 20.5 81.5t57 51t82.5 17.5l82 -37q21 -12 35.5 -29.5t22.5 -39.5t8 -49q0 -61 -30.5 -101t-73.5 -61
l-19 22q18 -10 46 -15t60 -5q31 0 56.5 10t40.5 30.5t15 52.5q0 51 -39.5 97t-119.5 84l-86 31q0 15 3.5 26.5t9.5 20t11 13.5q99 -28 164 -71.5t97.5 -97.5t32.5 -114q0 -45 -21 -80t-62.5 -55t-101.5 -20zM222 86l-36 8q26 10 49.5 24t38.5 39.5t15 67.5q0 44 -24 66.5
t-57 22.5t-57 -22.5t-24 -66.5q0 -35 13.5 -61t35.5 -44.5t46 -33.5z" />
    <glyph glyph-name="hehDoachashmee.ar.medi" unicode="&#x6be;" horiz-adv-x="460" arabic-form="medial" 
d="M266 -244q-64 0 -108.5 33t-67.5 92.5t-23 136.5v47q5 107 35 174t75.5 98.5t96.5 31.5q52 0 82 -21.5t43 -54t13 -65.5q0 -38 -17 -73.5t-48 -60.5t-72 -31v-37q71 -10 107 -48.5t36 -92.5q0 -39 -18 -68t-52 -45t-82 -16zM265 -169q32 0 54.5 17t22.5 47q0 45 -27 68
t-72 30t-98 5q4 -82 36 -124.5t84 -42.5zM-8 0v80h91l82 -16q55 4 130.5 10t157.5 6h15v-80h-15q-55 0 -107 5t-98 12.5t-83 12.5l-82 -30h-91zM145 79h17q56 1 94.5 21t58.5 51t20 65q0 33 -18.5 53.5t-48.5 20.5q-52 0 -84 -52t-39 -159zM468 0v80q4 -6 7 -16t3 -24
t-3.5 -24.5t-6.5 -15.5z" />
    <glyph glyph-name="hehDoachashmee.ar.fina" unicode="&#x6be;" horiz-adv-x="521" arabic-form="final" 
d="M53 0q-22 0 -37.5 6.5t-15.5 32.5q0 12 3 24.5t6 16.5h59l1 -80h-16zM529 0v80q4 -6 7 -16t3 -24t-3.5 -24.5t-6.5 -15.5zM327 -244q-64 0 -108.5 33t-67.5 92.5t-23 136.5v47q5 107 35 174t75.5 98.5t96.5 31.5q52 0 82 -21.5t43 -54t13 -65.5q0 -38 -17 -73.5
t-48 -60.5t-72 -31v-37q71 -10 107 -48.5t36 -92.5q0 -39 -18 -68t-52 -45t-82 -16zM326 -169q32 0 54.5 17t22.5 47q0 45 -27 68t-72 30t-98 5q4 -82 36 -124.5t84 -42.5zM53 0v80h91l82 -16q55 4 130.5 10t157.5 6h15v-80h-15q-55 0 -107 5t-98 12.5t-83 12.5l-82 -30h-91
zM206 79h17q56 1 94.5 21t58.5 51t20 65q0 33 -18.5 53.5t-48.5 20.5q-52 0 -84 -52t-39 -159z" />
    <glyph glyph-name="tehMarbuta.ar.fina" unicode="&#x629;" horiz-adv-x="455" arabic-form="final" 
d="M314 116l42 -23q-17 -23 -50.5 -39.5t-85.5 -16.5q-82 0 -127.5 39t-45.5 112q0 36 13.5 67.5t47 58.5t93.5 51l112 44v-80l-94 -35q-54 -20 -75 -45t-21 -56q0 -35 25 -55t74 -21q35 0 59.5 9.5t43.5 22.5l-21 -57v348q0 33 37 33q11 0 22 -2.5t16 -4.5v-320
q0 -37 20 -51.5t57 -14.5h7v-80h-12q-51 0 -90 26t-47 90zM463 0v80q4 -6 7 -16t3 -24t-3.5 -24.5t-6.5 -15.5zM255 549q-23 0 -36 13.5t-13 35.5q0 23 13 36t36 13t36 -13t13 -36q0 -22 -13 -35.5t-36 -13.5zM395 549q-23 0 -36 13.5t-13 35.5q0 23 13 36t36 13t36 -13
t13 -36q0 -22 -13 -35.5t-36 -13.5z" />
    <glyph glyph-name="tehMarbutagoal.ar.fina" unicode="&#x6c3;" horiz-adv-x="514" 
d="M506 0q-29 0 -48.5 5.5t-42 25t-61.5 59.5q-28 29 -47 38.5t-42 9.5q-27 0 -57.5 -18.5t-59.5 -47.5t-55 -62q-18 8 -29 22.5t-11 27.5q0 21 19.5 48t51.5 52.5t69.5 42.5t73.5 17q26 0 48.5 -6.5t45 -21t46.5 -39.5q34 -34 51.5 -49.5t28.5 -19.5t25 -4h10v-80h-16z
M522 0v80q4 -6 7 -16t3 -24t-3.5 -24.5t-6.5 -15.5zM183 296q-23 0 -36 13.5t-13 35.5q0 23 13 36t36 13t36 -13t13 -36q0 -22 -13 -35.5t-36 -13.5zM323 296q-23 0 -36 13.5t-13 35.5q0 23 13 36t36 13t36 -13t13 -36q0 -22 -13 -35.5t-36 -13.5z" />
    <glyph glyph-name="ae.ar.fina" unicode="&#x6d5;" horiz-adv-x="455" 
d="M314 116l42 -23q-17 -23 -50.5 -39.5t-85.5 -16.5q-82 0 -127.5 39t-45.5 112q0 36 13.5 67.5t47 58.5t93.5 51l112 44v-80l-94 -35q-54 -20 -75 -45t-21 -56q0 -35 25 -55t74 -21q35 0 59.5 9.5t43.5 22.5l-21 -57v348q0 33 37 33q11 0 22 -2.5t16 -4.5v-320
q0 -37 20 -51.5t57 -14.5h7v-80h-12q-51 0 -90 26t-47 90zM463 0v80q4 -6 7 -16t3 -24t-3.5 -24.5t-6.5 -15.5z" />
    <glyph glyph-name="hehYehabove.ar.fina" unicode="&#x6c0;" horiz-adv-x="455" arabic-form="final" 
d="M314 116l42 -23q-17 -23 -50.5 -39.5t-85.5 -16.5q-82 0 -127.5 39t-45.5 112q0 36 13.5 67.5t47 58.5t93.5 51l112 44v-80l-94 -35q-54 -20 -75 -45t-21 -56q0 -35 25 -55t74 -21q35 0 59.5 9.5t43.5 22.5l-21 -57v348q0 33 37 33q11 0 22 -2.5t16 -4.5v-320
q0 -37 20 -51.5t57 -14.5h7v-80h-12q-51 0 -90 26t-47 90zM463 0v80q4 -6 7 -16t3 -24t-3.5 -24.5t-6.5 -15.5zM338 741q29 0 45.5 -11t16.5 -28q0 -9 -5 -16.5t-10 -11.5q-9 7 -19 11t-25 4q-22 0 -31.5 -9t-9.5 -22q0 -14 10.5 -25t32.5 -13l-58 -11q-15 5 -26.5 19.5
t-11.5 38.5q0 36 26.5 55t64.5 19zM415 638q3 -4 5.5 -13t2.5 -17t-5.5 -14t-16.5 -9q-35 -6 -84 -14t-91 -19q-4 5 -7 12.5t-3 15.5q0 10 6.5 16.5t21.5 10.5q26 7 59.5 13t64.5 11t47 7z" />
    <glyph glyph-name="waw.ar.fina" unicode="&#x648;" horiz-adv-x="462" arabic-form="final" 
d="M378 0l1 80h91v-80h-92zM223 349q57 0 95.5 -33.5t58 -93.5t19.5 -139l-53 -83h-48h-55q-91 0 -139 43.5t-48 123.5q0 53 22.5 94t61.5 64.5t86 23.5zM222 271q-40 0 -67 -29.5t-27 -72.5q0 -44 30 -66.5t87 -22.5h43h39q0 101 -29.5 146t-75.5 45zM148 -229
q-52 0 -88 18t-36 52q0 14 6.5 25.5t14.5 18.5q16 -16 45 -25t54 -9q83 0 125.5 51t55.5 137l71 44q0 -103 -32 -172.5t-88 -104.5t-128 -35zM470 0v80q4 -6 7 -16t3 -24t-3.5 -24.5t-6.5 -15.5z" />
    <glyph glyph-name="wawHamzaabove.ar.fina" unicode="&#x624;" horiz-adv-x="462" arabic-form="final" 
d="M378 0l1 80h91v-80h-92zM223 349q57 0 95.5 -33.5t58 -93.5t19.5 -139l-53 -83h-48h-55q-91 0 -139 43.5t-48 123.5q0 53 22.5 94t61.5 64.5t86 23.5zM222 271q-40 0 -67 -29.5t-27 -72.5q0 -44 30 -66.5t87 -22.5h43h39q0 101 -29.5 146t-75.5 45zM148 -229
q-52 0 -88 18t-36 52q0 14 6.5 25.5t14.5 18.5q16 -16 45 -25t54 -9q83 0 125.5 51t55.5 137l71 44q0 -103 -32 -172.5t-88 -104.5t-128 -35zM470 0v80q4 -6 7 -16t3 -24t-3.5 -24.5t-6.5 -15.5zM216 616q29 0 45.5 -11t16.5 -28q0 -9 -5 -16.5t-10 -11.5q-9 7 -19 11t-25 4
q-22 0 -31.5 -9t-9.5 -22q0 -14 10.5 -25t32.5 -13l-58 -11q-15 5 -26.5 19.5t-11.5 38.5q0 36 26.5 55t64.5 19zM293 513q3 -4 5.5 -13t2.5 -17t-5.5 -14t-16.5 -9q-35 -6 -84 -14t-91 -19q-4 5 -7 12.5t-3 15.5q0 10 6.5 16.5t21.5 10.5q26 7 59.5 13t64.5 11t47 7z" />
    <glyph glyph-name="alefMaksura.ar.fina" unicode="&#x649;" horiz-adv-x="680" arabic-form="final" 
d="M351 -237q-95 0 -162 29t-102 86.5t-35 142.5q0 75 20 111.5t46 36.5q12 0 21.5 -3t15.5 -8q-9 -25 -17 -56t-8 -75q0 -98 58 -141.5t162 -43.5q65 0 118.5 14.5t85.5 41.5t32 62q0 29 -21.5 39t-63.5 16l-20 3q-40 6 -53 13t-13 29q0 12 5 23t9 15q41 -5 82.5 -9.5
t82 -6.5t78.5 -2h16v-80h-16q-19 0 -49 8t-83 29l8 19q35 -16 60.5 -27.5t39.5 -26.5t14 -44q0 -46 -25.5 -82.5t-70 -61.5t-100 -38t-115.5 -13zM688 0v80q4 -6 7 -16t3 -24t-3.5 -24.5t-6.5 -15.5z" />
    <glyph glyph-name="yeh.ar.init" unicode="&#x64a;" horiz-adv-x="299" arabic-form="initial" 
d="M-8 0v80h16q31 0 62.5 5t56.5 13t38 17q0 43 -6 89.5t-15 90t-18 76.5q8 5 19 9.5t24 4.5q18 0 30 -11.5t18 -40.5q4 -18 8.5 -49t8 -66t3.5 -65q0 -46 -8 -70t-37 -42q-30 -19 -80.5 -30t-103.5 -11h-16zM74 -177q-23 0 -36 13.5t-13 35.5q0 23 13 36t36 13t36 -13
t13 -36q0 -22 -13 -35.5t-36 -13.5zM214 -177q-23 0 -36 13.5t-13 35.5q0 23 13 36t36 13t36 -13t13 -36q0 -22 -13 -35.5t-36 -13.5z" />
    <glyph glyph-name="yeh.ar.medi" unicode="&#x64a;" horiz-adv-x="301" arabic-form="medial" 
d="M-8 0v80h16q53 0 79 23t27 73l2 122q4 2 14 5t21 3q16 0 25 -8.5t9 -23.5l2 -103q1 -46 27.5 -68.5t78.5 -22.5h16v-80h-18q-36 0 -65 10t-48.5 30t-28.5 50h5q-3 -29 -24.5 -49t-53.5 -30.5t-67 -10.5h-17zM309 0v80q4 -6 7 -16t3 -24t-3.5 -24.5t-6.5 -15.5zM81 -177
q-23 0 -36 13.5t-13 35.5q0 23 13 36t36 13t36 -13t13 -36q0 -22 -13 -35.5t-36 -13.5zM221 -177q-23 0 -36 13.5t-13 35.5q0 23 13 36t36 13t36 -13t13 -36q0 -22 -13 -35.5t-36 -13.5z" />
    <glyph glyph-name="yeh.ar.fina" unicode="&#x64a;" horiz-adv-x="680" arabic-form="final" 
d="M351 -237q-95 0 -162 29t-102 86.5t-35 142.5q0 75 20 111.5t46 36.5q12 0 21.5 -3t15.5 -8q-9 -25 -17 -56t-8 -75q0 -98 58 -141.5t162 -43.5q65 0 118.5 14.5t85.5 41.5t32 62q0 29 -21.5 39t-63.5 16l-20 3q-40 6 -53 13t-13 29q0 12 5 23t9 15q41 -5 82.5 -9.5
t82 -6.5t78.5 -2h16v-80h-16q-19 0 -49 8t-83 29l8 19q35 -16 60.5 -27.5t39.5 -26.5t14 -44q0 -46 -25.5 -82.5t-70 -61.5t-100 -38t-115.5 -13zM688 0v80q4 -6 7 -16t3 -24t-3.5 -24.5t-6.5 -15.5zM270 -414q-23 0 -36 13.5t-13 35.5q0 23 13 36t36 13t36 -13t13 -36
q0 -22 -13 -35.5t-36 -13.5zM410 -414q-23 0 -36 13.5t-13 35.5q0 23 13 36t36 13t36 -13t13 -36q0 -22 -13 -35.5t-36 -13.5z" />
    <glyph glyph-name="yehHamzaabove.ar.init" unicode="&#x626;" horiz-adv-x="299" arabic-form="initial" 
d="M-8 0v80h16q31 0 62.5 5t56.5 13t38 17q0 43 -6 89.5t-15 90t-18 76.5q8 5 19 9.5t24 4.5q18 0 30 -11.5t18 -40.5q4 -18 8.5 -49t8 -66t3.5 -65q0 -46 -8 -70t-37 -42q-30 -19 -80.5 -30t-103.5 -11h-16zM168 654q29 0 45.5 -11t16.5 -28q0 -9 -5 -16.5t-10 -11.5
q-9 7 -19 11t-25 4q-22 0 -31.5 -9t-9.5 -22q0 -14 10.5 -25t32.5 -13l-58 -11q-15 5 -26.5 19.5t-11.5 38.5q0 36 26.5 55t64.5 19zM245 551q3 -4 5.5 -13t2.5 -17t-5.5 -14t-16.5 -9q-35 -6 -84 -14t-91 -19q-4 5 -7 12.5t-3 15.5q0 10 6.5 16.5t21.5 10.5q26 7 59.5 13
t64.5 11t47 7z" />
    <glyph glyph-name="yehHamzaabove.ar.medi" unicode="&#x626;" horiz-adv-x="301" arabic-form="medial" 
d="M-8 0v80h16q53 0 79 23t27 73l2 122q4 2 14 5t21 3q16 0 25 -8.5t9 -23.5l2 -103q1 -46 27.5 -68.5t78.5 -22.5h16v-80h-18q-36 0 -65 10t-48.5 30t-28.5 50h5q-3 -29 -24.5 -49t-53.5 -30.5t-67 -10.5h-17zM309 0v80q4 -6 7 -16t3 -24t-3.5 -24.5t-6.5 -15.5zM164 574
q29 0 45.5 -11t16.5 -28q0 -9 -5 -16.5t-10 -11.5q-9 7 -19 11t-25 4q-22 0 -31.5 -9t-9.5 -22q0 -14 10.5 -25t32.5 -13l-58 -11q-15 5 -26.5 19.5t-11.5 38.5q0 36 26.5 55t64.5 19zM241 471q3 -4 5.5 -13t2.5 -17t-5.5 -14t-16.5 -9q-35 -6 -84 -14t-91 -19q-4 5 -7 12.5
t-3 15.5q0 10 6.5 16.5t21.5 10.5q26 7 59.5 13t64.5 11t47 7z" />
    <glyph glyph-name="yehHamzaabove.ar.fina" unicode="&#x626;" horiz-adv-x="680" arabic-form="final" 
d="M351 -237q-95 0 -162 29t-102 86.5t-35 142.5q0 75 20 111.5t46 36.5q12 0 21.5 -3t15.5 -8q-9 -25 -17 -56t-8 -75q0 -98 58 -141.5t162 -43.5q65 0 118.5 14.5t85.5 41.5t32 62q0 29 -21.5 39t-63.5 16l-20 3q-40 6 -53 13t-13 29q0 12 5 23t9 15q41 -5 82.5 -9.5
t82 -6.5t78.5 -2h16v-80h-16q-19 0 -49 8t-83 29l8 19q35 -16 60.5 -27.5t39.5 -26.5t14 -44q0 -46 -25.5 -82.5t-70 -61.5t-100 -38t-115.5 -13zM688 0v80q4 -6 7 -16t3 -24t-3.5 -24.5t-6.5 -15.5zM145 437q29 0 45.5 -11t16.5 -28q0 -9 -5 -16.5t-10 -11.5q-9 7 -19 11
t-25 4q-22 0 -31.5 -9t-9.5 -22q0 -14 10.5 -25t32.5 -13l-58 -11q-15 5 -26.5 19.5t-11.5 38.5q0 36 26.5 55t64.5 19zM222 334q3 -4 5.5 -13t2.5 -17t-5.5 -14t-16.5 -9q-35 -6 -84 -14t-91 -19q-4 5 -7 12.5t-3 15.5q0 10 6.5 16.5t21.5 10.5q26 7 59.5 13t64.5 11t47 7z
" />
    <glyph glyph-name="YeChoti.ar.init" unicode="&#x6cc;" horiz-adv-x="299" arabic-form="initial" 
d="M-8 0v80h16q31 0 62.5 5t56.5 13t38 17q0 43 -6 89.5t-15 90t-18 76.5q8 5 19 9.5t24 4.5q18 0 30 -11.5t18 -40.5q4 -18 8.5 -49t8 -66t3.5 -65q0 -46 -8 -70t-37 -42q-30 -19 -80.5 -30t-103.5 -11h-16zM74 -177q-23 0 -36 13.5t-13 35.5q0 23 13 36t36 13t36 -13
t13 -36q0 -22 -13 -35.5t-36 -13.5zM214 -177q-23 0 -36 13.5t-13 35.5q0 23 13 36t36 13t36 -13t13 -36q0 -22 -13 -35.5t-36 -13.5z" />
    <glyph glyph-name="YeChoti.ar.medi" unicode="&#x6cc;" horiz-adv-x="301" arabic-form="medial" 
d="M-8 0v80h16q53 0 79 23t27 73l2 122q4 2 14 5t21 3q16 0 25 -8.5t9 -23.5l2 -103q1 -46 27.5 -68.5t78.5 -22.5h16v-80h-18q-36 0 -65 10t-48.5 30t-28.5 50h5q-3 -29 -24.5 -49t-53.5 -30.5t-67 -10.5h-17zM309 0v80q4 -6 7 -16t3 -24t-3.5 -24.5t-6.5 -15.5zM81 -177
q-23 0 -36 13.5t-13 35.5q0 23 13 36t36 13t36 -13t13 -36q0 -22 -13 -35.5t-36 -13.5zM221 -177q-23 0 -36 13.5t-13 35.5q0 23 13 36t36 13t36 -13t13 -36q0 -22 -13 -35.5t-36 -13.5z" />
    <glyph glyph-name="YeChoti.ar.fina" unicode="&#x6cc;" horiz-adv-x="680" arabic-form="final" 
d="M351 -237q-95 0 -162 29t-102 86.5t-35 142.5q0 75 20 111.5t46 36.5q12 0 21.5 -3t15.5 -8q-9 -25 -17 -56t-8 -75q0 -98 58 -141.5t162 -43.5q65 0 118.5 14.5t85.5 41.5t32 62q0 29 -21.5 39t-63.5 16l-20 3q-40 6 -53 13t-13 29q0 12 5 23t9 15q41 -5 82.5 -9.5
t82 -6.5t78.5 -2h16v-80h-16q-19 0 -49 8t-83 29l8 19q35 -16 60.5 -27.5t39.5 -26.5t14 -44q0 -46 -25.5 -82.5t-70 -61.5t-100 -38t-115.5 -13zM688 0v80q4 -6 7 -16t3 -24t-3.5 -24.5t-6.5 -15.5z" />
    <glyph glyph-name="yehbarree.ar.fina" unicode="&#x6d2;" horiz-adv-x="557" arabic-form="final" 
d="M309 -237q-106 0 -170 16.5t-92.5 51t-28.5 87.5q0 77 64.5 119.5t185.5 42.5h297v-80h-305q-88 0 -127.5 -20t-39.5 -61q0 -27 19.5 -43.5t67.5 -24.5t131 -8q59 0 120 4.5t108 9.5q2 -10 3.5 -17t1.5 -17q0 -19 -10 -28t-27 -14q-28 -7 -81 -12.5t-117 -5.5zM565 0v80
q4 -6 7 -16t3 -24t-3.5 -24.5t-6.5 -15.5z" />
    <glyph glyph-name="yehbarreeHamzaabove.ar.fina" unicode="&#x6d3;" horiz-adv-x="557" arabic-form="final" 
d="M309 -237q-106 0 -170 16.5t-92.5 51t-28.5 87.5q0 77 64.5 119.5t185.5 42.5h297v-80h-305q-88 0 -127.5 -20t-39.5 -61q0 -27 19.5 -43.5t67.5 -24.5t131 -8q59 0 120 4.5t108 9.5q2 -10 3.5 -17t1.5 -17q0 -19 -10 -28t-27 -14q-28 -7 -81 -12.5t-117 -5.5zM565 0v80
q4 -6 7 -16t3 -24t-3.5 -24.5t-6.5 -15.5zM281 348q29 0 45.5 -11t16.5 -28q0 -9 -5 -16.5t-10 -11.5q-9 7 -19 11t-25 4q-22 0 -31.5 -9t-9.5 -22q0 -14 10.5 -25t32.5 -13l-58 -11q-15 5 -26.5 19.5t-11.5 38.5q0 36 26.5 55t64.5 19zM358 245q3 -4 5.5 -13t2.5 -17
t-5.5 -14t-16.5 -9q-35 -6 -84 -14t-91 -19q-4 5 -7 12.5t-3 15.5q0 10 6.5 16.5t21.5 10.5q26 7 59.5 13t64.5 11t47 7z" />
    <glyph glyph-name="lam_alefHamzaabove.ar" unicode="&#xfef7;" horiz-adv-x="528" arabic-form="isolated" 
d="M275 -14q-58 0 -107 10t-88 28q-5 13 -8 27.5t-3 30.5q0 17 1.5 25.5t5.5 23.5q52 32 105 72t99 88l12 8q20 24 36.5 61.5t26 91.5t9.5 128v85q5 2 16.5 4.5t23.5 2.5q20 0 29.5 -8.5t9.5 -25.5l1 -67q1 -64 -6.5 -114.5t-21.5 -89t-31.5 -68t-35.5 -51.5l-14 -13
q-40 -42 -91 -80t-99 -67q24 -10 57 -15t64 -5q47 0 71.5 7t33 17t8.5 20q0 25 -19 56.5t-58 65.5l-17 15q-23 24 -50 48.5t-54.5 48t-53 45t-46.5 39.5q-12 11 -19.5 20t-7.5 20q0 23 17 36t28 17q49 -43 111 -100t119 -117l18 -15q52 -47 80.5 -96t28.5 -89
q0 -58 -47.5 -89t-133.5 -31zM116 770q29 0 45.5 -11t16.5 -28q0 -9 -5 -16.5t-10 -11.5q-9 7 -19 11t-25 4q-22 0 -31.5 -9t-9.5 -22q0 -14 10.5 -25t32.5 -13l-58 -11q-15 5 -26.5 19.5t-11.5 38.5q0 36 26.5 55t64.5 19zM193 667q3 -4 5.5 -13t2.5 -17t-5.5 -14t-16.5 -9
q-35 -6 -84 -14t-91 -19q-4 5 -7 12.5t-3 15.5q0 10 6.5 16.5t21.5 10.5q26 7 59.5 13t64.5 11t47 7z" />
    <glyph glyph-name="lam_alefHamzaabove.ar.fina" unicode="&#xfef8;" horiz-adv-x="549" arabic-form="final" 
d="M300 78l-219 421q-2 5 -4.5 10.5t-3.5 10.5q-3 19 10.5 31t36.5 15q5 1 10 1t9 -1l220 -452zM44 40q0 14 2 23t5 17h42q105 3 171 28t97.5 67.5t30.5 95.5l-2 394q5 2 17 4.5t25 2.5q17 0 26 -8.5t9 -26.5l-2 -488q0 -29 12 -44t29.5 -20t33.5 -5h17v-80h-16
q-53 0 -91 33t-46 99l18 40q0 -27 -22 -57t-64.5 -56t-102.5 -42.5t-137 -16.5q-28 0 -40 12t-12 28zM557 0v80q4 -6 7 -16t3 -24t-3.5 -24.5t-6.5 -15.5zM131 820q29 0 45.5 -11t16.5 -28q0 -9 -5 -16.5t-10 -11.5q-9 7 -19 11t-25 4q-22 0 -31.5 -9t-9.5 -22
q0 -14 10.5 -25t32.5 -13l-58 -11q-15 5 -26.5 19.5t-11.5 38.5q0 36 26.5 55t64.5 19zM208 717q3 -4 5.5 -13t2.5 -17t-5.5 -14t-16.5 -9q-35 -6 -84 -14t-91 -19q-4 5 -7 12.5t-3 15.5q0 10 6.5 16.5t21.5 10.5q26 7 59.5 13t64.5 11t47 7z" />
    <glyph glyph-name="lam_alefHamzabelow.ar" unicode="&#xfef9;" horiz-adv-x="528" arabic-form="isolated" 
d="M275 -14q-58 0 -107 10t-88 28q-5 13 -8 27.5t-3 30.5q0 17 1.5 25.5t5.5 23.5q52 32 105 72t99 88l12 8q20 24 36.5 61.5t26 91.5t9.5 128v85q5 2 16.5 4.5t23.5 2.5q20 0 29.5 -8.5t9.5 -25.5l1 -67q1 -64 -6.5 -114.5t-21.5 -89t-31.5 -68t-35.5 -51.5l-14 -13
q-40 -42 -91 -80t-99 -67q24 -10 57 -15t64 -5q47 0 71.5 7t33 17t8.5 20q0 25 -19 56.5t-58 65.5l-17 15q-23 24 -50 48.5t-54.5 48t-53 45t-46.5 39.5q-12 11 -19.5 20t-7.5 20q0 23 17 36t28 17q49 -43 111 -100t119 -117l18 -15q52 -47 80.5 -96t28.5 -89
q0 -58 -47.5 -89t-133.5 -31zM164 -81q29 0 45.5 -11t16.5 -28q0 -9 -5 -16.5t-10 -11.5q-9 7 -19 11t-25 4q-22 0 -31.5 -9t-9.5 -22q0 -14 10.5 -25t32.5 -13l-58 -11q-15 5 -26.5 19.5t-11.5 38.5q0 36 26.5 55t64.5 19zM241 -184q3 -4 5.5 -13t2.5 -17t-5.5 -14
t-16.5 -9q-35 -6 -84 -14t-91 -19q-4 5 -7 12.5t-3 15.5q0 10 6.5 16.5t21.5 10.5q26 7 59.5 13t64.5 11t47 7z" />
    <glyph glyph-name="lam_alefHamzabelow.ar.fina" unicode="&#xfefa;" horiz-adv-x="549" arabic-form="final" 
d="M300 78l-219 421q-2 5 -4.5 10.5t-3.5 10.5q-3 19 10.5 31t36.5 15q5 1 10 1t9 -1l220 -452zM44 40q0 14 2 23t5 17h42q105 3 171 28t97.5 67.5t30.5 95.5l-2 394q5 2 17 4.5t25 2.5q17 0 26 -8.5t9 -26.5l-2 -488q0 -29 12 -44t29.5 -20t33.5 -5h17v-80h-16
q-53 0 -91 33t-46 99l18 40q0 -27 -22 -57t-64.5 -56t-102.5 -42.5t-137 -16.5q-28 0 -40 12t-12 28zM557 0v80q4 -6 7 -16t3 -24t-3.5 -24.5t-6.5 -15.5zM159 -81q29 0 45.5 -11t16.5 -28q0 -9 -5 -16.5t-10 -11.5q-9 7 -19 11t-25 4q-22 0 -31.5 -9t-9.5 -22
q0 -14 10.5 -25t32.5 -13l-58 -11q-15 5 -26.5 19.5t-11.5 38.5q0 36 26.5 55t64.5 19zM236 -184q3 -4 5.5 -13t2.5 -17t-5.5 -14t-16.5 -9q-35 -6 -84 -14t-91 -19q-4 5 -7 12.5t-3 15.5q0 10 6.5 16.5t21.5 10.5q26 7 59.5 13t64.5 11t47 7z" />
    <glyph glyph-name="lam_alefMadda.ar" unicode="&#xfef5;" horiz-adv-x="528" arabic-form="isolated" 
d="M275 -14q-58 0 -107 10t-88 28q-5 13 -8 27.5t-3 30.5q0 17 1.5 25.5t5.5 23.5q52 32 105 72t99 88l12 8q20 24 36.5 61.5t26 91.5t9.5 128v85q5 2 16.5 4.5t23.5 2.5q20 0 29.5 -8.5t9.5 -25.5l1 -67q1 -64 -6.5 -114.5t-21.5 -89t-31.5 -68t-35.5 -51.5l-14 -13
q-40 -42 -91 -80t-99 -67q24 -10 57 -15t64 -5q47 0 71.5 7t33 17t8.5 20q0 25 -19 56.5t-58 65.5l-17 15q-23 24 -50 48.5t-54.5 48t-53 45t-46.5 39.5q-12 11 -19.5 20t-7.5 20q0 23 17 36t28 17q49 -43 111 -100t119 -117l18 -15q52 -47 80.5 -96t28.5 -89
q0 -58 -47.5 -89t-133.5 -31zM20 566q-47 0 -47 36q0 29 21 45.5t60 16.5q20 0 44 -4t40 -4q20 0 31 7.5t14 26.5q18 0 28.5 -7t10.5 -21q0 -22 -17 -40t-55 -18q-14 0 -29 2t-29 4t-24 2q-24 0 -35.5 -10t-12.5 -36z" />
    <glyph glyph-name="lam_alefMadda.ar.fina" unicode="&#xfef6;" horiz-adv-x="549" arabic-form="final" 
d="M300 78l-219 421q-2 5 -4.5 10.5t-3.5 10.5q-3 19 10.5 31t36.5 15q5 1 10 1t9 -1l220 -452zM44 40q0 14 2 23t5 17h42q105 3 171 28t97.5 67.5t30.5 95.5l-2 394q5 2 17 4.5t25 2.5q17 0 26 -8.5t9 -26.5l-2 -488q0 -29 12 -44t29.5 -20t33.5 -5h17v-80h-16
q-53 0 -91 33t-46 99l18 40q0 -27 -22 -57t-64.5 -56t-102.5 -42.5t-137 -16.5q-28 0 -40 12t-12 28zM557 0v80q4 -6 7 -16t3 -24t-3.5 -24.5t-6.5 -15.5zM35 616q-47 0 -47 36q0 29 21 45.5t60 16.5q20 0 44 -4t40 -4q20 0 31 7.5t14 26.5q18 0 28.5 -7t10.5 -21
q0 -22 -17 -40t-55 -18q-14 0 -29 2t-29 4t-24 2q-24 0 -35.5 -10t-12.5 -36z" />
    <glyph glyph-name="beh_alefMaksura.ar" unicode="&#xfc09;" horiz-adv-x="702" arabic-form="isolated" 
d="M513 371q8 7 19 10.5t24 3.5q18 0 30 -11.5t18 -40.5q4 -18 8.5 -49t8 -66t3.5 -65q0 -24 -1.5 -40.5t-8.5 -27.5t-25 -20q-22 -11 -49.5 -11t-37.5 1l2 7q34 -2 62.5 -7t50 -16.5t33.5 -31.5t12 -52q0 -46 -25.5 -82t-70 -60.5t-100 -37t-115.5 -12.5q-95 0 -162 29
t-102 86.5t-35 142.5q0 75 20 111.5t46 36.5q12 0 21.5 -3t15.5 -8q-9 -25 -17 -56t-8 -75q0 -98 58 -141.5t162 -43.5q65 0 118.5 14.5t85.5 41.5t32 62q0 32 -23 40t-57 14q-7 2 -21 4t-27 4q-20 3 -31.5 10t-11.5 28q0 13 4.5 22.5t8.5 14.5q35 0 70 4t54 14
q0 43 -6 89.5t-15 90t-18 76.5zM614 -344q-23 0 -37 14t-14 37t14 37t37 14t37 -14t14 -37t-14 -37t-37 -14z" />
    <glyph glyph-name="beh_alefMaksura.ar.fina" unicode="&#xfc6e;" horiz-adv-x="902" arabic-form="final" 
d="M910 0v80q4 -6 7 -16t3 -24t-3.5 -24.5t-6.5 -15.5zM516 399q60 0 103.5 -19.5t76.5 -60t60 -104.5q24 -56 43 -85t40.5 -39.5t51.5 -10.5h19v-80h-17q-46 0 -80.5 13t-61.5 46.5t-52 94.5q-20 50 -43 88.5t-56 60t-84 21.5q-44 0 -75 -16.5t-47 -41t-16 -48.5
q0 -22 16 -34t49 -21l76 -20q37 -9 70 -26t53.5 -45.5t20.5 -75.5q0 -50 -26 -89.5t-70 -67t-100 -42t-116 -14.5q-142 0 -220.5 65.5t-78.5 192.5q0 75 20 111.5t46 36.5q12 0 21.5 -3t15.5 -8q-9 -25 -17 -56t-8 -75q0 -98 58 -141.5t162 -43.5q65 0 118.5 18t85.5 48.5
t32 65.5q0 36 -25 50.5t-59 24.5l-82 23q-55 15 -86 41.5t-31 83.5q0 42 24.5 84t72 70t116.5 28zM762 -262q-23 0 -37 14t-14 37t14 37t37 14t37 -14t14 -37t-14 -37t-37 -14z" />
    <glyph glyph-name="beh_yeh.ar.fina" unicode="&#xfc6f;" horiz-adv-x="902" arabic-form="final" 
d="M910 0v80q4 -6 7 -16t3 -24t-3.5 -24.5t-6.5 -15.5zM516 399q60 0 103.5 -19.5t76.5 -60t60 -104.5q24 -56 43 -85t40.5 -39.5t51.5 -10.5h19v-80h-17q-46 0 -80.5 13t-61.5 46.5t-52 94.5q-20 50 -43 88.5t-56 60t-84 21.5q-44 0 -75 -16.5t-47 -41t-16 -48.5
q0 -22 16 -34t49 -21l76 -20q37 -9 70 -26t53.5 -45.5t20.5 -75.5q0 -50 -26 -89.5t-70 -67t-100 -42t-116 -14.5q-142 0 -220.5 65.5t-78.5 192.5q0 75 20 111.5t46 36.5q12 0 21.5 -3t15.5 -8q-9 -25 -17 -56t-8 -75q0 -98 58 -141.5t162 -43.5q65 0 118.5 18t85.5 48.5
t32 65.5q0 36 -25 50.5t-59 24.5l-82 23q-55 15 -86 41.5t-31 83.5q0 42 24.5 84t72 70t116.5 28zM762 -262q-23 0 -37 14t-14 37t14 37t37 14t37 -14t14 -37t-14 -37t-37 -14zM283 -394q-23 0 -36 13.5t-13 35.5q0 23 13 36t36 13t36 -13t13 -36q0 -22 -13 -35.5t-36 -13.5
zM423 -394q-23 0 -36 13.5t-13 35.5q0 23 13 36t36 13t36 -13t13 -36q0 -22 -13 -35.5t-36 -13.5z" />
    <glyph glyph-name="teh_alefMaksura.ar" unicode="&#xfc0f;" horiz-adv-x="702" arabic-form="isolated" 
d="M513 371q8 7 19 10.5t24 3.5q18 0 30 -11.5t18 -40.5q4 -18 8.5 -49t8 -66t3.5 -65q0 -24 -1.5 -40.5t-8.5 -27.5t-25 -20q-22 -11 -49.5 -11t-37.5 1l2 7q34 -2 62.5 -7t50 -16.5t33.5 -31.5t12 -52q0 -46 -25.5 -82t-70 -60.5t-100 -37t-115.5 -12.5q-95 0 -162 29
t-102 86.5t-35 142.5q0 75 20 111.5t46 36.5q12 0 21.5 -3t15.5 -8q-9 -25 -17 -56t-8 -75q0 -98 58 -141.5t162 -43.5q65 0 118.5 14.5t85.5 41.5t32 62q0 32 -23 40t-57 14q-7 2 -21 4t-27 4q-20 3 -31.5 10t-11.5 28q0 13 4.5 22.5t8.5 14.5q35 0 70 4t54 14
q0 43 -6 89.5t-15 90t-18 76.5zM470 462q-23 0 -36 13.5t-13 35.5q0 23 13 36t36 13t36 -13t13 -36q0 -22 -13 -35.5t-36 -13.5zM610 462q-23 0 -36 13.5t-13 35.5q0 23 13 36t36 13t36 -13t13 -36q0 -22 -13 -35.5t-36 -13.5z" />
    <glyph glyph-name="teh_alefMaksura.ar.fina" unicode="&#xfc74;" horiz-adv-x="902" arabic-form="final" 
d="M910 0v80q4 -6 7 -16t3 -24t-3.5 -24.5t-6.5 -15.5zM516 399q60 0 103.5 -19.5t76.5 -60t60 -104.5q24 -56 43 -85t40.5 -39.5t51.5 -10.5h19v-80h-17q-46 0 -80.5 13t-61.5 46.5t-52 94.5q-20 50 -43 88.5t-56 60t-84 21.5q-44 0 -75 -16.5t-47 -41t-16 -48.5
q0 -22 16 -34t49 -21l76 -20q37 -9 70 -26t53.5 -45.5t20.5 -75.5q0 -50 -26 -89.5t-70 -67t-100 -42t-116 -14.5q-142 0 -220.5 65.5t-78.5 192.5q0 75 20 111.5t46 36.5q12 0 21.5 -3t15.5 -8q-9 -25 -17 -56t-8 -75q0 -98 58 -141.5t162 -43.5q65 0 118.5 18t85.5 48.5
t32 65.5q0 36 -25 50.5t-59 24.5l-82 23q-55 15 -86 41.5t-31 83.5q0 42 24.5 84t72 70t116.5 28zM459 476q-23 0 -36 13.5t-13 35.5q0 23 13 36t36 13t36 -13t13 -36q0 -22 -13 -35.5t-36 -13.5zM599 476q-23 0 -36 13.5t-13 35.5q0 23 13 36t36 13t36 -13t13 -36
q0 -22 -13 -35.5t-36 -13.5z" />
    <glyph glyph-name="teh_yeh.ar.fina" unicode="&#xfc75;" horiz-adv-x="902" arabic-form="final" 
d="M910 0v80q4 -6 7 -16t3 -24t-3.5 -24.5t-6.5 -15.5zM516 399q60 0 103.5 -19.5t76.5 -60t60 -104.5q24 -56 43 -85t40.5 -39.5t51.5 -10.5h19v-80h-17q-46 0 -80.5 13t-61.5 46.5t-52 94.5q-20 50 -43 88.5t-56 60t-84 21.5q-44 0 -75 -16.5t-47 -41t-16 -48.5
q0 -22 16 -34t49 -21l76 -20q37 -9 70 -26t53.5 -45.5t20.5 -75.5q0 -50 -26 -89.5t-70 -67t-100 -42t-116 -14.5q-142 0 -220.5 65.5t-78.5 192.5q0 75 20 111.5t46 36.5q12 0 21.5 -3t15.5 -8q-9 -25 -17 -56t-8 -75q0 -98 58 -141.5t162 -43.5q65 0 118.5 18t85.5 48.5
t32 65.5q0 36 -25 50.5t-59 24.5l-82 23q-55 15 -86 41.5t-31 83.5q0 42 24.5 84t72 70t116.5 28zM283 -394q-23 0 -36 13.5t-13 35.5q0 23 13 36t36 13t36 -13t13 -36q0 -22 -13 -35.5t-36 -13.5zM423 -394q-23 0 -36 13.5t-13 35.5q0 23 13 36t36 13t36 -13t13 -36
q0 -22 -13 -35.5t-36 -13.5zM459 476q-23 0 -36 13.5t-13 35.5q0 23 13 36t36 13t36 -13t13 -36q0 -22 -13 -35.5t-36 -13.5zM599 476q-23 0 -36 13.5t-13 35.5q0 23 13 36t36 13t36 -13t13 -36q0 -22 -13 -35.5t-36 -13.5z" />
    <glyph glyph-name="theh_alefMaksura.ar" unicode="&#xfc13;" horiz-adv-x="702" arabic-form="isolated" 
d="M513 371q8 7 19 10.5t24 3.5q18 0 30 -11.5t18 -40.5q4 -18 8.5 -49t8 -66t3.5 -65q0 -24 -1.5 -40.5t-8.5 -27.5t-25 -20q-22 -11 -49.5 -11t-37.5 1l2 7q34 -2 62.5 -7t50 -16.5t33.5 -31.5t12 -52q0 -46 -25.5 -82t-70 -60.5t-100 -37t-115.5 -12.5q-95 0 -162 29
t-102 86.5t-35 142.5q0 75 20 111.5t46 36.5q12 0 21.5 -3t15.5 -8q-9 -25 -17 -56t-8 -75q0 -98 58 -141.5t162 -43.5q65 0 118.5 14.5t85.5 41.5t32 62q0 32 -23 40t-57 14q-7 2 -21 4t-27 4q-20 3 -31.5 10t-11.5 28q0 13 4.5 22.5t8.5 14.5q35 0 70 4t54 14
q0 43 -6 89.5t-15 90t-18 76.5zM540 583q-22 0 -35 13t-13 35t13 35t35 13t35 -13t13 -35t-13 -35t-35 -13zM470 462q-23 0 -36 13.5t-13 35.5q0 23 13 36t36 13t36 -13t13 -36q0 -22 -13 -35.5t-36 -13.5zM610 462q-23 0 -36 13.5t-13 35.5q0 23 13 36t36 13t36 -13t13 -36
q0 -22 -13 -35.5t-36 -13.5z" />
    <glyph glyph-name="theh_alefMaksura.ar.fina" unicode="&#xfc7a;" horiz-adv-x="902" arabic-form="final" 
d="M910 0v80q4 -6 7 -16t3 -24t-3.5 -24.5t-6.5 -15.5zM516 399q60 0 103.5 -19.5t76.5 -60t60 -104.5q24 -56 43 -85t40.5 -39.5t51.5 -10.5h19v-80h-17q-46 0 -80.5 13t-61.5 46.5t-52 94.5q-20 50 -43 88.5t-56 60t-84 21.5q-44 0 -75 -16.5t-47 -41t-16 -48.5
q0 -22 16 -34t49 -21l76 -20q37 -9 70 -26t53.5 -45.5t20.5 -75.5q0 -50 -26 -89.5t-70 -67t-100 -42t-116 -14.5q-142 0 -220.5 65.5t-78.5 192.5q0 75 20 111.5t46 36.5q12 0 21.5 -3t15.5 -8q-9 -25 -17 -56t-8 -75q0 -98 58 -141.5t162 -43.5q65 0 118.5 18t85.5 48.5
t32 65.5q0 36 -25 50.5t-59 24.5l-82 23q-55 15 -86 41.5t-31 83.5q0 42 24.5 84t72 70t116.5 28zM529 597q-22 0 -35 13t-13 35t13 35t35 13t35 -13t13 -35t-13 -35t-35 -13zM459 476q-23 0 -36 13.5t-13 35.5q0 23 13 36t36 13t36 -13t13 -36q0 -22 -13 -35.5t-36 -13.5z
M599 476q-23 0 -36 13.5t-13 35.5q0 23 13 36t36 13t36 -13t13 -36q0 -22 -13 -35.5t-36 -13.5z" />
    <glyph glyph-name="theh_yeh.ar.fina" unicode="&#xfc7b;" horiz-adv-x="902" arabic-form="final" 
d="M910 0v80q4 -6 7 -16t3 -24t-3.5 -24.5t-6.5 -15.5zM516 399q60 0 103.5 -19.5t76.5 -60t60 -104.5q24 -56 43 -85t40.5 -39.5t51.5 -10.5h19v-80h-17q-46 0 -80.5 13t-61.5 46.5t-52 94.5q-20 50 -43 88.5t-56 60t-84 21.5q-44 0 -75 -16.5t-47 -41t-16 -48.5
q0 -22 16 -34t49 -21l76 -20q37 -9 70 -26t53.5 -45.5t20.5 -75.5q0 -50 -26 -89.5t-70 -67t-100 -42t-116 -14.5q-142 0 -220.5 65.5t-78.5 192.5q0 75 20 111.5t46 36.5q12 0 21.5 -3t15.5 -8q-9 -25 -17 -56t-8 -75q0 -98 58 -141.5t162 -43.5q65 0 118.5 18t85.5 48.5
t32 65.5q0 36 -25 50.5t-59 24.5l-82 23q-55 15 -86 41.5t-31 83.5q0 42 24.5 84t72 70t116.5 28zM283 -394q-23 0 -36 13.5t-13 35.5q0 23 13 36t36 13t36 -13t13 -36q0 -22 -13 -35.5t-36 -13.5zM423 -394q-23 0 -36 13.5t-13 35.5q0 23 13 36t36 13t36 -13t13 -36
q0 -22 -13 -35.5t-36 -13.5zM529 597q-22 0 -35 13t-13 35t13 35t35 13t35 -13t13 -35t-13 -35t-35 -13zM459 476q-23 0 -36 13.5t-13 35.5q0 23 13 36t36 13t36 -13t13 -36q0 -22 -13 -35.5t-36 -13.5zM599 476q-23 0 -36 13.5t-13 35.5q0 23 13 36t36 13t36 -13t13 -36
q0 -22 -13 -35.5t-36 -13.5z" />
    <glyph glyph-name="noon_alefMaksura.ar" unicode="&#xfc4f;" horiz-adv-x="702" arabic-form="isolated" 
d="M513 371q8 7 19 10.5t24 3.5q18 0 30 -11.5t18 -40.5q4 -18 8.5 -49t8 -66t3.5 -65q0 -24 -1.5 -40.5t-8.5 -27.5t-25 -20q-22 -11 -49.5 -11t-37.5 1l2 7q34 -2 62.5 -7t50 -16.5t33.5 -31.5t12 -52q0 -46 -25.5 -82t-70 -60.5t-100 -37t-115.5 -12.5q-95 0 -162 29
t-102 86.5t-35 142.5q0 75 20 111.5t46 36.5q12 0 21.5 -3t15.5 -8q-9 -25 -17 -56t-8 -75q0 -98 58 -141.5t162 -43.5q65 0 118.5 14.5t85.5 41.5t32 62q0 32 -23 40t-57 14q-7 2 -21 4t-27 4q-20 3 -31.5 10t-11.5 28q0 13 4.5 22.5t8.5 14.5q35 0 70 4t54 14
q0 43 -6 89.5t-15 90t-18 76.5zM540 463q-23 0 -37 14t-14 37t14 37t37 14t37 -14t14 -37t-14 -37t-37 -14z" />
    <glyph glyph-name="noon_alefMaksura.ar.fina" unicode="&#xfc8e;" horiz-adv-x="902" arabic-form="final" 
d="M910 0v80q4 -6 7 -16t3 -24t-3.5 -24.5t-6.5 -15.5zM516 399q60 0 103.5 -19.5t76.5 -60t60 -104.5q24 -56 43 -85t40.5 -39.5t51.5 -10.5h19v-80h-17q-46 0 -80.5 13t-61.5 46.5t-52 94.5q-20 50 -43 88.5t-56 60t-84 21.5q-44 0 -75 -16.5t-47 -41t-16 -48.5
q0 -22 16 -34t49 -21l76 -20q37 -9 70 -26t53.5 -45.5t20.5 -75.5q0 -50 -26 -89.5t-70 -67t-100 -42t-116 -14.5q-142 0 -220.5 65.5t-78.5 192.5q0 75 20 111.5t46 36.5q12 0 21.5 -3t15.5 -8q-9 -25 -17 -56t-8 -75q0 -98 58 -141.5t162 -43.5q65 0 118.5 18t85.5 48.5
t32 65.5q0 36 -25 50.5t-59 24.5l-82 23q-55 15 -86 41.5t-31 83.5q0 42 24.5 84t72 70t116.5 28zM529 477q-23 0 -37 14t-14 37t14 37t37 14t37 -14t14 -37t-14 -37t-37 -14z" />
    <glyph glyph-name="noon_yeh.ar.fina" unicode="&#xfc8f;" horiz-adv-x="902" arabic-form="final" 
d="M910 0v80q4 -6 7 -16t3 -24t-3.5 -24.5t-6.5 -15.5zM516 399q60 0 103.5 -19.5t76.5 -60t60 -104.5q24 -56 43 -85t40.5 -39.5t51.5 -10.5h19v-80h-17q-46 0 -80.5 13t-61.5 46.5t-52 94.5q-20 50 -43 88.5t-56 60t-84 21.5q-44 0 -75 -16.5t-47 -41t-16 -48.5
q0 -22 16 -34t49 -21l76 -20q37 -9 70 -26t53.5 -45.5t20.5 -75.5q0 -50 -26 -89.5t-70 -67t-100 -42t-116 -14.5q-142 0 -220.5 65.5t-78.5 192.5q0 75 20 111.5t46 36.5q12 0 21.5 -3t15.5 -8q-9 -25 -17 -56t-8 -75q0 -98 58 -141.5t162 -43.5q65 0 118.5 18t85.5 48.5
t32 65.5q0 36 -25 50.5t-59 24.5l-82 23q-55 15 -86 41.5t-31 83.5q0 42 24.5 84t72 70t116.5 28zM283 -394q-23 0 -36 13.5t-13 35.5q0 23 13 36t36 13t36 -13t13 -36q0 -22 -13 -35.5t-36 -13.5zM423 -394q-23 0 -36 13.5t-13 35.5q0 23 13 36t36 13t36 -13t13 -36
q0 -22 -13 -35.5t-36 -13.5zM529 477q-23 0 -37 14t-14 37t14 37t37 14t37 -14t14 -37t-14 -37t-37 -14z" />
    <glyph glyph-name="yehHamzaabove_alefMaksura.ar" unicode="&#xfc03;" horiz-adv-x="702" arabic-form="isolated" 
d="M513 371q8 7 19 10.5t24 3.5q18 0 30 -11.5t18 -40.5q4 -18 8.5 -49t8 -66t3.5 -65q0 -24 -1.5 -40.5t-8.5 -27.5t-25 -20q-22 -11 -49.5 -11t-37.5 1l2 7q34 -2 62.5 -7t50 -16.5t33.5 -31.5t12 -52q0 -46 -25.5 -82t-70 -60.5t-100 -37t-115.5 -12.5q-95 0 -162 29
t-102 86.5t-35 142.5q0 75 20 111.5t46 36.5q12 0 21.5 -3t15.5 -8q-9 -25 -17 -56t-8 -75q0 -98 58 -141.5t162 -43.5q65 0 118.5 14.5t85.5 41.5t32 62q0 32 -23 40t-57 14q-7 2 -21 4t-27 4q-20 3 -31.5 10t-11.5 28q0 13 4.5 22.5t8.5 14.5q35 0 70 4t54 14
q0 43 -6 89.5t-15 90t-18 76.5zM553 654q29 0 45.5 -11t16.5 -28q0 -9 -5 -16.5t-10 -11.5q-9 7 -19 11t-25 4q-22 0 -31.5 -9t-9.5 -22q0 -14 10.5 -25t32.5 -13l-58 -11q-15 5 -26.5 19.5t-11.5 38.5q0 36 26.5 55t64.5 19zM630 551q3 -4 5.5 -13t2.5 -17t-5.5 -14
t-16.5 -9q-35 -6 -84 -14t-91 -19q-4 5 -7 12.5t-3 15.5q0 10 6.5 16.5t21.5 10.5q26 7 59.5 13t64.5 11t47 7z" />
    <glyph glyph-name="yehHamzaabove_alefMaksura.ar.fina" unicode="&#xfc68;" horiz-adv-x="902" arabic-form="final" 
d="M910 0v80q4 -6 7 -16t3 -24t-3.5 -24.5t-6.5 -15.5zM516 399q60 0 103.5 -19.5t76.5 -60t60 -104.5q24 -56 43 -85t40.5 -39.5t51.5 -10.5h19v-80h-17q-46 0 -80.5 13t-61.5 46.5t-52 94.5q-20 50 -43 88.5t-56 60t-84 21.5q-44 0 -75 -16.5t-47 -41t-16 -48.5
q0 -22 16 -34t49 -21l76 -20q37 -9 70 -26t53.5 -45.5t20.5 -75.5q0 -50 -26 -89.5t-70 -67t-100 -42t-116 -14.5q-142 0 -220.5 65.5t-78.5 192.5q0 75 20 111.5t46 36.5q12 0 21.5 -3t15.5 -8q-9 -25 -17 -56t-8 -75q0 -98 58 -141.5t162 -43.5q65 0 118.5 18t85.5 48.5
t32 65.5q0 36 -25 50.5t-59 24.5l-82 23q-55 15 -86 41.5t-31 83.5q0 42 24.5 84t72 70t116.5 28zM542 668q29 0 45.5 -11t16.5 -28q0 -9 -5 -16.5t-10 -11.5q-9 7 -19 11t-25 4q-22 0 -31.5 -9t-9.5 -22q0 -14 10.5 -25t32.5 -13l-58 -11q-15 5 -26.5 19.5t-11.5 38.5
q0 36 26.5 55t64.5 19zM619 565q3 -4 5.5 -13t2.5 -17t-5.5 -14t-16.5 -9q-35 -6 -84 -14t-91 -19q-4 5 -7 12.5t-3 15.5q0 10 6.5 16.5t21.5 10.5q26 7 59.5 13t64.5 11t47 7z" />
    <glyph glyph-name="yehHamzaabove_yeh.ar.fina" unicode="&#xfc69;" horiz-adv-x="902" arabic-form="final" 
d="M910 0v80q4 -6 7 -16t3 -24t-3.5 -24.5t-6.5 -15.5zM516 399q60 0 103.5 -19.5t76.5 -60t60 -104.5q24 -56 43 -85t40.5 -39.5t51.5 -10.5h19v-80h-17q-46 0 -80.5 13t-61.5 46.5t-52 94.5q-20 50 -43 88.5t-56 60t-84 21.5q-44 0 -75 -16.5t-47 -41t-16 -48.5
q0 -22 16 -34t49 -21l76 -20q37 -9 70 -26t53.5 -45.5t20.5 -75.5q0 -50 -26 -89.5t-70 -67t-100 -42t-116 -14.5q-142 0 -220.5 65.5t-78.5 192.5q0 75 20 111.5t46 36.5q12 0 21.5 -3t15.5 -8q-9 -25 -17 -56t-8 -75q0 -98 58 -141.5t162 -43.5q65 0 118.5 18t85.5 48.5
t32 65.5q0 36 -25 50.5t-59 24.5l-82 23q-55 15 -86 41.5t-31 83.5q0 42 24.5 84t72 70t116.5 28zM542 668q29 0 45.5 -11t16.5 -28q0 -9 -5 -16.5t-10 -11.5q-9 7 -19 11t-25 4q-22 0 -31.5 -9t-9.5 -22q0 -14 10.5 -25t32.5 -13l-58 -11q-15 5 -26.5 19.5t-11.5 38.5
q0 36 26.5 55t64.5 19zM619 565q3 -4 5.5 -13t2.5 -17t-5.5 -14t-16.5 -9q-35 -6 -84 -14t-91 -19q-4 5 -7 12.5t-3 15.5q0 10 6.5 16.5t21.5 10.5q26 7 59.5 13t64.5 11t47 7zM283 -394q-23 0 -36 13.5t-13 35.5q0 23 13 36t36 13t36 -13t13 -36q0 -22 -13 -35.5t-36 -13.5
zM423 -394q-23 0 -36 13.5t-13 35.5q0 23 13 36t36 13t36 -13t13 -36q0 -22 -13 -35.5t-36 -13.5z" />
    <glyph glyph-name="seen_alefMaksura.ar" unicode="&#xfcfb;" horiz-adv-x="1329" arabic-form="isolated" 
d="M888 80q33 0 51.5 21t19.5 65l2 102q4 2 15 4.5t21 2.5q16 0 24.5 -8t9.5 -23l2 -63q2 -55 24.5 -78.5t63.5 -23.5q32 0 53 16t21 26q0 32 -3.5 65.5t-9.5 66.5t-13 63t-13 55q8 5 19 9.5t24 4.5q18 0 30 -11.5t18 -40.5q4 -18 8.5 -49t8 -66t3.5 -65q0 -78 -40.5 -115.5
t-107.5 -37.5q-38 0 -66 14t-44 35.5t-21 45.5l10 -1q-2 -30 -17.5 -51t-40 -32t-53.5 -11q-46 0 -79 13t-58.5 46.5t-50.5 94.5q-20 50 -43 88.5t-56 60t-84 21.5q-44 0 -75 -16.5t-47 -41t-16 -48.5q0 -22 16 -34t49 -21l76 -20q37 -9 70 -26t53.5 -45.5t20.5 -75.5
q0 -50 -26 -89.5t-70 -67t-100 -42t-116 -14.5q-142 0 -220.5 65.5t-78.5 192.5q0 75 20 111.5t46 36.5q12 0 21.5 -3t15.5 -8q-9 -25 -17 -56t-8 -75q0 -98 58 -141.5t162 -43.5q65 0 118.5 18t85.5 48.5t32 65.5q0 36 -25 50.5t-59 24.5l-82 23q-55 15 -86 41.5t-31 83.5
q0 42 24.5 84t72 70t116.5 28q60 0 103.5 -19.5t76.5 -60t60 -104.5q24 -56 42.5 -85t39 -39.5t50.5 -10.5z" />
    <glyph glyph-name="seen_alefMaksura.ar.fina" unicode="&#xfd17;" horiz-adv-x="1345" arabic-form="final" 
d="M888 80q33 0 51.5 21t19.5 65l2 102q4 2 15 4.5t21 2.5q16 0 24.5 -8t9.5 -23l2 -73q2 -49 18.5 -70.5t49.5 -21.5q31 0 48.5 21.5t18.5 70.5l2 138q4 2 15 4.5t21 2.5q16 0 25 -8.5t9 -22.5l2 -117q1 -47 28 -67.5t66 -20.5h17v-80h-10q-63 0 -99.5 26t-45.5 69l16 -1
q-8 -42 -34 -68t-79 -26q-52 0 -79.5 29.5t-33.5 65.5l10 -1q-3 -45 -35.5 -69.5t-75.5 -24.5q-46 0 -79 13t-58.5 46.5t-50.5 94.5q-20 50 -43 88.5t-56 60t-84 21.5q-44 0 -75 -16.5t-47 -41t-16 -48.5q0 -22 16 -34t49 -21l76 -20q37 -9 70 -26t53.5 -45.5t20.5 -75.5
q0 -50 -26 -89.5t-70 -67t-100 -42t-116 -14.5q-142 0 -220.5 65.5t-78.5 192.5q0 75 20 111.5t46 36.5q12 0 21.5 -3t15.5 -8q-9 -25 -17 -56t-8 -75q0 -98 58 -141.5t162 -43.5q65 0 118.5 18t85.5 48.5t32 65.5q0 36 -25 50.5t-59 24.5l-82 23q-55 15 -86 41.5t-31 83.5
q0 42 24.5 84t72 70t116.5 28q60 0 103.5 -19.5t76.5 -60t60 -104.5q24 -56 42.5 -85t39 -39.5t50.5 -10.5zM1353 0v80q4 -6 7 -16t3 -24t-3.5 -24.5t-6.5 -15.5z" />
    <glyph glyph-name="seen_yeh.ar.fina" unicode="&#xfd18;" horiz-adv-x="1345" arabic-form="final" 
d="M888 80q33 0 51.5 21t19.5 65l2 102q4 2 15 4.5t21 2.5q16 0 24.5 -8t9.5 -23l2 -73q2 -49 18.5 -70.5t49.5 -21.5q31 0 48.5 21.5t18.5 70.5l2 138q4 2 15 4.5t21 2.5q16 0 25 -8.5t9 -22.5l2 -117q1 -47 28 -67.5t66 -20.5h17v-80h-10q-63 0 -99.5 26t-45.5 69l16 -1
q-8 -42 -34 -68t-79 -26q-52 0 -79.5 29.5t-33.5 65.5l10 -1q-3 -45 -35.5 -69.5t-75.5 -24.5q-46 0 -79 13t-58.5 46.5t-50.5 94.5q-20 50 -43 88.5t-56 60t-84 21.5q-44 0 -75 -16.5t-47 -41t-16 -48.5q0 -22 16 -34t49 -21l76 -20q37 -9 70 -26t53.5 -45.5t20.5 -75.5
q0 -50 -26 -89.5t-70 -67t-100 -42t-116 -14.5q-142 0 -220.5 65.5t-78.5 192.5q0 75 20 111.5t46 36.5q12 0 21.5 -3t15.5 -8q-9 -25 -17 -56t-8 -75q0 -98 58 -141.5t162 -43.5q65 0 118.5 18t85.5 48.5t32 65.5q0 36 -25 50.5t-59 24.5l-82 23q-55 15 -86 41.5t-31 83.5
q0 42 24.5 84t72 70t116.5 28q60 0 103.5 -19.5t76.5 -60t60 -104.5q24 -56 42.5 -85t39 -39.5t50.5 -10.5zM1353 0v80q4 -6 7 -16t3 -24t-3.5 -24.5t-6.5 -15.5zM281 -394q-23 0 -36 13.5t-13 35.5q0 23 13 36t36 13t36 -13t13 -36q0 -22 -13 -35.5t-36 -13.5zM421 -394
q-23 0 -36 13.5t-13 35.5q0 23 13 36t36 13t36 -13t13 -36q0 -22 -13 -35.5t-36 -13.5z" />
    <glyph glyph-name="sheen_alefMaksura.ar" unicode="&#xfcfd;" horiz-adv-x="1329" arabic-form="isolated" 
d="M888 80q33 0 51.5 21t19.5 65l2 102q4 2 15 4.5t21 2.5q16 0 24.5 -8t9.5 -23l2 -63q2 -55 24.5 -78.5t63.5 -23.5q32 0 53 16t21 26q0 32 -3.5 65.5t-9.5 66.5t-13 63t-13 55q8 5 19 9.5t24 4.5q18 0 30 -11.5t18 -40.5q4 -18 8.5 -49t8 -66t3.5 -65q0 -78 -40.5 -115.5
t-107.5 -37.5q-38 0 -66 14t-44 35.5t-21 45.5l10 -1q-2 -30 -17.5 -51t-40 -32t-53.5 -11q-46 0 -79 13t-58.5 46.5t-50.5 94.5q-20 50 -43 88.5t-56 60t-84 21.5q-44 0 -75 -16.5t-47 -41t-16 -48.5q0 -22 16 -34t49 -21l76 -20q37 -9 70 -26t53.5 -45.5t20.5 -75.5
q0 -50 -26 -89.5t-70 -67t-100 -42t-116 -14.5q-142 0 -220.5 65.5t-78.5 192.5q0 75 20 111.5t46 36.5q12 0 21.5 -3t15.5 -8q-9 -25 -17 -56t-8 -75q0 -98 58 -141.5t162 -43.5q65 0 118.5 18t85.5 48.5t32 65.5q0 36 -25 50.5t-59 24.5l-82 23q-55 15 -86 41.5t-31 83.5
q0 42 24.5 84t72 70t116.5 28q60 0 103.5 -19.5t76.5 -60t60 -104.5q24 -56 42.5 -85t39 -39.5t50.5 -10.5zM997 472q-22 0 -35 13t-13 35t13 35t35 13t35 -13t13 -35t-13 -35t-35 -13zM927 351q-23 0 -36 13.5t-13 35.5q0 23 13 36t36 13t36 -13t13 -36q0 -22 -13 -35.5
t-36 -13.5zM1067 351q-23 0 -36 13.5t-13 35.5q0 23 13 36t36 13t36 -13t13 -36q0 -22 -13 -35.5t-36 -13.5z" />
    <glyph glyph-name="sheen_alefMaksura.ar.fina" unicode="&#xfd19;" horiz-adv-x="1345" arabic-form="final" 
d="M888 80q33 0 51.5 21t19.5 65l2 102q4 2 15 4.5t21 2.5q16 0 24.5 -8t9.5 -23l2 -73q2 -49 18.5 -70.5t49.5 -21.5q31 0 48.5 21.5t18.5 70.5l2 138q4 2 15 4.5t21 2.5q16 0 25 -8.5t9 -22.5l2 -117q1 -47 28 -67.5t66 -20.5h17v-80h-10q-63 0 -99.5 26t-45.5 69l16 -1
q-8 -42 -34 -68t-79 -26q-52 0 -79.5 29.5t-33.5 65.5l10 -1q-3 -45 -35.5 -69.5t-75.5 -24.5q-46 0 -79 13t-58.5 46.5t-50.5 94.5q-20 50 -43 88.5t-56 60t-84 21.5q-44 0 -75 -16.5t-47 -41t-16 -48.5q0 -22 16 -34t49 -21l76 -20q37 -9 70 -26t53.5 -45.5t20.5 -75.5
q0 -50 -26 -89.5t-70 -67t-100 -42t-116 -14.5q-142 0 -220.5 65.5t-78.5 192.5q0 75 20 111.5t46 36.5q12 0 21.5 -3t15.5 -8q-9 -25 -17 -56t-8 -75q0 -98 58 -141.5t162 -43.5q65 0 118.5 18t85.5 48.5t32 65.5q0 36 -25 50.5t-59 24.5l-82 23q-55 15 -86 41.5t-31 83.5
q0 42 24.5 84t72 70t116.5 28q60 0 103.5 -19.5t76.5 -60t60 -104.5q24 -56 42.5 -85t39 -39.5t50.5 -10.5zM1353 0v80q4 -6 7 -16t3 -24t-3.5 -24.5t-6.5 -15.5zM997 472q-22 0 -35 13t-13 35t13 35t35 13t35 -13t13 -35t-13 -35t-35 -13zM927 351q-23 0 -36 13.5t-13 35.5
q0 23 13 36t36 13t36 -13t13 -36q0 -22 -13 -35.5t-36 -13.5zM1067 351q-23 0 -36 13.5t-13 35.5q0 23 13 36t36 13t36 -13t13 -36q0 -22 -13 -35.5t-36 -13.5z" />
    <glyph glyph-name="sheen_yeh.ar.fina" unicode="&#xfd1a;" horiz-adv-x="1345" arabic-form="final" 
d="M888 80q33 0 51.5 21t19.5 65l2 102q4 2 15 4.5t21 2.5q16 0 24.5 -8t9.5 -23l2 -73q2 -49 18.5 -70.5t49.5 -21.5q31 0 48.5 21.5t18.5 70.5l2 138q4 2 15 4.5t21 2.5q16 0 25 -8.5t9 -22.5l2 -117q1 -47 28 -67.5t66 -20.5h17v-80h-10q-63 0 -99.5 26t-45.5 69l16 -1
q-8 -42 -34 -68t-79 -26q-52 0 -79.5 29.5t-33.5 65.5l10 -1q-3 -45 -35.5 -69.5t-75.5 -24.5q-46 0 -79 13t-58.5 46.5t-50.5 94.5q-20 50 -43 88.5t-56 60t-84 21.5q-44 0 -75 -16.5t-47 -41t-16 -48.5q0 -22 16 -34t49 -21l76 -20q37 -9 70 -26t53.5 -45.5t20.5 -75.5
q0 -50 -26 -89.5t-70 -67t-100 -42t-116 -14.5q-142 0 -220.5 65.5t-78.5 192.5q0 75 20 111.5t46 36.5q12 0 21.5 -3t15.5 -8q-9 -25 -17 -56t-8 -75q0 -98 58 -141.5t162 -43.5q65 0 118.5 18t85.5 48.5t32 65.5q0 36 -25 50.5t-59 24.5l-82 23q-55 15 -86 41.5t-31 83.5
q0 42 24.5 84t72 70t116.5 28q60 0 103.5 -19.5t76.5 -60t60 -104.5q24 -56 42.5 -85t39 -39.5t50.5 -10.5zM1353 0v80q4 -6 7 -16t3 -24t-3.5 -24.5t-6.5 -15.5zM997 472q-22 0 -35 13t-13 35t13 35t35 13t35 -13t13 -35t-13 -35t-35 -13zM927 351q-23 0 -36 13.5t-13 35.5
q0 23 13 36t36 13t36 -13t13 -36q0 -22 -13 -35.5t-36 -13.5zM1067 351q-23 0 -36 13.5t-13 35.5q0 23 13 36t36 13t36 -13t13 -36q0 -22 -13 -35.5t-36 -13.5zM281 -394q-23 0 -36 13.5t-13 35.5q0 23 13 36t36 13t36 -13t13 -36q0 -22 -13 -35.5t-36 -13.5zM421 -394
q-23 0 -36 13.5t-13 35.5q0 23 13 36t36 13t36 -13t13 -36q0 -22 -13 -35.5t-36 -13.5z" />
    <glyph glyph-name="sad_alefMaksura.ar" unicode="&#xfd05;" horiz-adv-x="1419" arabic-form="isolated" 
d="M874 8q-43 6 -73 18t-54 41.5t-48 86.5q-21 50 -43.5 88.5t-55.5 60t-84 21.5q-44 0 -75 -16.5t-47 -41t-16 -48.5q0 -22 16 -34t49 -21l76 -20q37 -9 70 -26t53.5 -45.5t20.5 -75.5q0 -50 -26 -89.5t-70 -67t-100 -42t-116 -14.5q-142 0 -220.5 65.5t-78.5 192.5
q0 75 20 111.5t46 36.5q12 0 21.5 -3t15.5 -8q-9 -25 -17 -56t-8 -75q0 -98 58 -141.5t162 -43.5q65 0 118.5 18t85.5 48.5t32 65.5q0 36 -25 50.5t-59 24.5l-82 23q-55 15 -86 41.5t-31 83.5q0 42 24.5 84t72 70t116.5 28q60 0 103.5 -19.5t76.5 -60t60 -104.5
q18 -42 32 -66.5t28 -37t31 -17t41 -6.5q19 -3 42.5 -5t52.5 -3t63 -1q114 0 175 25.5t61 84.5q0 47 -35 76.5t-91 29.5q-27 0 -57.5 -9t-63.5 -33.5t-64.5 -70.5t-59.5 -120l-69 26q28 78 62 132.5t74 88.5t84.5 49.5t93.5 15.5q62 0 107 -22t69.5 -63.5t24.5 -99.5
q0 -94 -75 -141.5t-236 -47.5q-49 0 -94 2t-78 6z" />
    <glyph glyph-name="sad_alefMaksura.ar.fina" unicode="&#xfd21;" horiz-adv-x="1458" arabic-form="final" 
d="M1456 0q-60 0 -96 17.5t-52 46.5t-16 64l46 81q0 -50 11.5 -78t38 -39.5t69.5 -11.5h9v-80h-10zM1466 0v80q4 -6 7 -16t3 -24t-3.5 -24.5t-6.5 -15.5zM874 8q-43 6 -73 18t-54 41.5t-48 86.5q-21 50 -43.5 88.5t-55.5 60t-84 21.5q-44 0 -75 -16.5t-47 -41t-16 -48.5
q0 -22 16 -34t49 -21l76 -20q37 -9 70 -26t53.5 -45.5t20.5 -75.5q0 -50 -26 -89.5t-70 -67t-100 -42t-116 -14.5q-142 0 -220.5 65.5t-78.5 192.5q0 75 20 111.5t46 36.5q12 0 21.5 -3t15.5 -8q-9 -25 -17 -56t-8 -75q0 -98 58 -141.5t162 -43.5q65 0 118.5 18t85.5 48.5
t32 65.5q0 36 -25 50.5t-59 24.5l-82 23q-55 15 -86 41.5t-31 83.5q0 42 24.5 84t72 70t116.5 28q60 0 103.5 -19.5t76.5 -60t60 -104.5q18 -42 32 -66.5t28 -37t31 -17t41 -6.5q19 -3 42.5 -5t52.5 -3t63 -1q114 0 175 25.5t61 84.5q0 47 -35 76.5t-91 29.5q-27 0 -57.5 -9
t-63.5 -33.5t-64.5 -70.5t-59.5 -120l-69 26q28 78 62 132.5t74 88.5t84.5 49.5t93.5 15.5q62 0 107 -22t69.5 -63.5t24.5 -99.5q0 -94 -75 -141.5t-236 -47.5q-49 0 -94 2t-78 6z" />
    <glyph glyph-name="sad_yeh.ar.fina" unicode="&#xfd22;" horiz-adv-x="1458" arabic-form="final" 
d="M1456 0q-60 0 -96 17.5t-52 46.5t-16 64l46 81q0 -50 11.5 -78t38 -39.5t69.5 -11.5h9v-80h-10zM1466 0v80q4 -6 7 -16t3 -24t-3.5 -24.5t-6.5 -15.5zM874 8q-43 6 -73 18t-54 41.5t-48 86.5q-21 50 -43.5 88.5t-55.5 60t-84 21.5q-44 0 -75 -16.5t-47 -41t-16 -48.5
q0 -22 16 -34t49 -21l76 -20q37 -9 70 -26t53.5 -45.5t20.5 -75.5q0 -50 -26 -89.5t-70 -67t-100 -42t-116 -14.5q-142 0 -220.5 65.5t-78.5 192.5q0 75 20 111.5t46 36.5q12 0 21.5 -3t15.5 -8q-9 -25 -17 -56t-8 -75q0 -98 58 -141.5t162 -43.5q65 0 118.5 18t85.5 48.5
t32 65.5q0 36 -25 50.5t-59 24.5l-82 23q-55 15 -86 41.5t-31 83.5q0 42 24.5 84t72 70t116.5 28q60 0 103.5 -19.5t76.5 -60t60 -104.5q18 -42 32 -66.5t28 -37t31 -17t41 -6.5q19 -3 42.5 -5t52.5 -3t63 -1q114 0 175 25.5t61 84.5q0 47 -35 76.5t-91 29.5q-27 0 -57.5 -9
t-63.5 -33.5t-64.5 -70.5t-59.5 -120l-69 26q28 78 62 132.5t74 88.5t84.5 49.5t93.5 15.5q62 0 107 -22t69.5 -63.5t24.5 -99.5q0 -94 -75 -141.5t-236 -47.5q-49 0 -94 2t-78 6zM281 -394q-23 0 -36 13.5t-13 35.5q0 23 13 36t36 13t36 -13t13 -36q0 -22 -13 -35.5
t-36 -13.5zM421 -394q-23 0 -36 13.5t-13 35.5q0 23 13 36t36 13t36 -13t13 -36q0 -22 -13 -35.5t-36 -13.5z" />
    <glyph glyph-name="dad_alefMaksura.ar" unicode="&#xfd07;" horiz-adv-x="1419" arabic-form="isolated" 
d="M874 8q-43 6 -73 18t-54 41.5t-48 86.5q-21 50 -43.5 88.5t-55.5 60t-84 21.5q-44 0 -75 -16.5t-47 -41t-16 -48.5q0 -22 16 -34t49 -21l76 -20q37 -9 70 -26t53.5 -45.5t20.5 -75.5q0 -50 -26 -89.5t-70 -67t-100 -42t-116 -14.5q-142 0 -220.5 65.5t-78.5 192.5
q0 75 20 111.5t46 36.5q12 0 21.5 -3t15.5 -8q-9 -25 -17 -56t-8 -75q0 -98 58 -141.5t162 -43.5q65 0 118.5 18t85.5 48.5t32 65.5q0 36 -25 50.5t-59 24.5l-82 23q-55 15 -86 41.5t-31 83.5q0 42 24.5 84t72 70t116.5 28q60 0 103.5 -19.5t76.5 -60t60 -104.5
q18 -42 32 -66.5t28 -37t31 -17t41 -6.5q19 -3 42.5 -5t52.5 -3t63 -1q114 0 175 25.5t61 84.5q0 47 -35 76.5t-91 29.5q-27 0 -57.5 -9t-63.5 -33.5t-64.5 -70.5t-59.5 -120l-69 26q28 78 62 132.5t74 88.5t84.5 49.5t93.5 15.5q62 0 107 -22t69.5 -63.5t24.5 -99.5
q0 -94 -75 -141.5t-236 -47.5q-49 0 -94 2t-78 6zM1126 451q-23 0 -37 14t-14 37t14 37t37 14t37 -14t14 -37t-14 -37t-37 -14z" />
    <glyph glyph-name="dad_alefMaksura.ar.fina" unicode="&#xfd23;" horiz-adv-x="1458" arabic-form="final" 
d="M1456 0q-60 0 -96 17.5t-52 46.5t-16 64l46 81q0 -50 11.5 -78t38 -39.5t69.5 -11.5h9v-80h-10zM1466 0v80q4 -6 7 -16t3 -24t-3.5 -24.5t-6.5 -15.5zM874 8q-43 6 -73 18t-54 41.5t-48 86.5q-21 50 -43.5 88.5t-55.5 60t-84 21.5q-44 0 -75 -16.5t-47 -41t-16 -48.5
q0 -22 16 -34t49 -21l76 -20q37 -9 70 -26t53.5 -45.5t20.5 -75.5q0 -50 -26 -89.5t-70 -67t-100 -42t-116 -14.5q-142 0 -220.5 65.5t-78.5 192.5q0 75 20 111.5t46 36.5q12 0 21.5 -3t15.5 -8q-9 -25 -17 -56t-8 -75q0 -98 58 -141.5t162 -43.5q65 0 118.5 18t85.5 48.5
t32 65.5q0 36 -25 50.5t-59 24.5l-82 23q-55 15 -86 41.5t-31 83.5q0 42 24.5 84t72 70t116.5 28q60 0 103.5 -19.5t76.5 -60t60 -104.5q18 -42 32 -66.5t28 -37t31 -17t41 -6.5q19 -3 42.5 -5t52.5 -3t63 -1q114 0 175 25.5t61 84.5q0 47 -35 76.5t-91 29.5q-27 0 -57.5 -9
t-63.5 -33.5t-64.5 -70.5t-59.5 -120l-69 26q28 78 62 132.5t74 88.5t84.5 49.5t93.5 15.5q62 0 107 -22t69.5 -63.5t24.5 -99.5q0 -94 -75 -141.5t-236 -47.5q-49 0 -94 2t-78 6zM1126 451q-23 0 -37 14t-14 37t14 37t37 14t37 -14t14 -37t-14 -37t-37 -14z" />
    <glyph glyph-name="dad_yeh.ar.fina" unicode="&#xfd24;" horiz-adv-x="1458" arabic-form="final" 
d="M1456 0q-60 0 -96 17.5t-52 46.5t-16 64l46 81q0 -50 11.5 -78t38 -39.5t69.5 -11.5h9v-80h-10zM1466 0v80q4 -6 7 -16t3 -24t-3.5 -24.5t-6.5 -15.5zM874 8q-43 6 -73 18t-54 41.5t-48 86.5q-21 50 -43.5 88.5t-55.5 60t-84 21.5q-44 0 -75 -16.5t-47 -41t-16 -48.5
q0 -22 16 -34t49 -21l76 -20q37 -9 70 -26t53.5 -45.5t20.5 -75.5q0 -50 -26 -89.5t-70 -67t-100 -42t-116 -14.5q-142 0 -220.5 65.5t-78.5 192.5q0 75 20 111.5t46 36.5q12 0 21.5 -3t15.5 -8q-9 -25 -17 -56t-8 -75q0 -98 58 -141.5t162 -43.5q65 0 118.5 18t85.5 48.5
t32 65.5q0 36 -25 50.5t-59 24.5l-82 23q-55 15 -86 41.5t-31 83.5q0 42 24.5 84t72 70t116.5 28q60 0 103.5 -19.5t76.5 -60t60 -104.5q18 -42 32 -66.5t28 -37t31 -17t41 -6.5q19 -3 42.5 -5t52.5 -3t63 -1q114 0 175 25.5t61 84.5q0 47 -35 76.5t-91 29.5q-27 0 -57.5 -9
t-63.5 -33.5t-64.5 -70.5t-59.5 -120l-69 26q28 78 62 132.5t74 88.5t84.5 49.5t93.5 15.5q62 0 107 -22t69.5 -63.5t24.5 -99.5q0 -94 -75 -141.5t-236 -47.5q-49 0 -94 2t-78 6zM1126 451q-23 0 -37 14t-14 37t14 37t37 14t37 -14t14 -37t-14 -37t-37 -14zM281 -394
q-23 0 -36 13.5t-13 35.5q0 23 13 36t36 13t36 -13t13 -36q0 -22 -13 -35.5t-36 -13.5zM421 -394q-23 0 -36 13.5t-13 35.5q0 23 13 36t36 13t36 -13t13 -36q0 -22 -13 -35.5t-36 -13.5z" />
    <glyph glyph-name="tah_alefMaksura.ar" unicode="&#xfcf5;" horiz-adv-x="1226" arabic-form="isolated" 
d="M659 665q5 2 17 4.5t25 2.5q17 0 26.5 -8.5t9.5 -25.5l-3 -471l-70 -88zM429 98q41 -5 83.5 -9.5t87 -6.5t92.5 -2l8 -1h71h82q114 0 175 25.5t61 84.5q0 47 -34 76.5t-87 29.5q-27 0 -57.5 -9t-63.5 -33.5t-64.5 -70.5t-59.5 -120l-80 5l29 59l46 80q39 81 104.5 124.5
t149.5 43.5q58 0 101 -23t67 -64.5t24 -97.5q0 -94 -75 -141.5t-236 -47.5q-44 0 -92 1t-84.5 3.5t-48.5 6.5l-80 45q35 -16 60.5 -27t39.5 -26.5t14 -44.5q0 -46 -25.5 -82.5t-70 -61.5t-100 -38t-115.5 -13q-95 0 -162 29t-102 86.5t-35 142.5q0 75 20 111.5t46 36.5
q12 0 21.5 -3t15.5 -8q-9 -25 -17 -56t-8 -75q0 -98 58 -141.5t162 -43.5q65 0 118.5 14.5t85.5 41.5t32 62q0 29 -21.5 39t-63.5 16l-20 3q-40 6 -53 13t-13 29q0 12 5 23t9 15z" />
    <glyph glyph-name="tah_alefMaksura.ar.fina" unicode="&#xfd11;" horiz-adv-x="1264" arabic-form="final" 
d="M1262 0q-60 0 -96 17.5t-52 46.5t-16 64l46 81q0 -50 11.5 -78t38 -39.5t69.5 -11.5h9v-80h-10zM1272 0v80q4 -6 7 -16t3 -24t-3.5 -24.5t-6.5 -15.5zM659 665q5 2 17 4.5t25 2.5q17 0 26.5 -8.5t9.5 -25.5l-3 -471l-70 -88zM429 98q41 -5 83.5 -9.5t87 -6.5t92.5 -2
l8 -1h71h82q114 0 175 25.5t61 84.5q0 47 -34 76.5t-87 29.5q-27 0 -57.5 -9t-63.5 -33.5t-64.5 -70.5t-59.5 -120l-80 5l29 59l46 80q39 81 104.5 124.5t149.5 43.5q58 0 101 -23t67 -64.5t24 -97.5q0 -94 -75 -141.5t-236 -47.5q-44 0 -92 1t-84.5 3.5t-48.5 6.5l-80 45
q35 -16 60.5 -27t39.5 -26.5t14 -44.5q0 -46 -25.5 -82.5t-70 -61.5t-100 -38t-115.5 -13q-95 0 -162 29t-102 86.5t-35 142.5q0 75 20 111.5t46 36.5q12 0 21.5 -3t15.5 -8q-9 -25 -17 -56t-8 -75q0 -98 58 -141.5t162 -43.5q65 0 118.5 14.5t85.5 41.5t32 62
q0 29 -21.5 39t-63.5 16l-20 3q-40 6 -53 13t-13 29q0 12 5 23t9 15z" />
    <glyph glyph-name="tah_yeh.ar.fina" unicode="&#xfd12;" horiz-adv-x="1264" arabic-form="final" 
d="M1262 0q-60 0 -96 17.5t-52 46.5t-16 64l46 81q0 -50 11.5 -78t38 -39.5t69.5 -11.5h9v-80h-10zM1272 0v80q4 -6 7 -16t3 -24t-3.5 -24.5t-6.5 -15.5zM659 665q5 2 17 4.5t25 2.5q17 0 26.5 -8.5t9.5 -25.5l-3 -471l-70 -88zM429 98q41 -5 83.5 -9.5t87 -6.5t92.5 -2
l8 -1h71h82q114 0 175 25.5t61 84.5q0 47 -34 76.5t-87 29.5q-27 0 -57.5 -9t-63.5 -33.5t-64.5 -70.5t-59.5 -120l-80 5l29 59l46 80q39 81 104.5 124.5t149.5 43.5q58 0 101 -23t67 -64.5t24 -97.5q0 -94 -75 -141.5t-236 -47.5q-44 0 -92 1t-84.5 3.5t-48.5 6.5l-80 45
q35 -16 60.5 -27t39.5 -26.5t14 -44.5q0 -46 -25.5 -82.5t-70 -61.5t-100 -38t-115.5 -13q-95 0 -162 29t-102 86.5t-35 142.5q0 75 20 111.5t46 36.5q12 0 21.5 -3t15.5 -8q-9 -25 -17 -56t-8 -75q0 -98 58 -141.5t162 -43.5q65 0 118.5 14.5t85.5 41.5t32 62
q0 29 -21.5 39t-63.5 16l-20 3q-40 6 -53 13t-13 29q0 12 5 23t9 15zM281 -414q-23 0 -36 13.5t-13 35.5q0 23 13 36t36 13t36 -13t13 -36q0 -22 -13 -35.5t-36 -13.5zM421 -414q-23 0 -36 13.5t-13 35.5q0 23 13 36t36 13t36 -13t13 -36q0 -22 -13 -35.5t-36 -13.5z" />
    <glyph glyph-name="qaf_alefMaksura.ar" unicode="&#xfc35;" horiz-adv-x="714" arabic-form="isolated" 
d="M453 518q66 0 105 -36t56.5 -98t17.5 -142q0 -56 -4 -92t-17 -57.5t-39 -32t-70 -15.5l2 17q34 -2 62.5 -7t50 -16.5t33.5 -31.5t12 -52q0 -46 -25.5 -82t-70 -60.5t-100 -37t-115.5 -12.5q-95 0 -162 29t-102 86.5t-35 142.5q0 75 20 111.5t46 36.5q12 0 21.5 -3
t15.5 -8q-9 -25 -17 -56t-8 -75q0 -98 58 -141.5t162 -43.5q65 0 118.5 14.5t85.5 41.5t32 62q0 32 -23 40t-57 14q-7 2 -21 4t-27 4q-20 3 -31.5 10t-11.5 28q0 13 4.5 22.5t8.5 14.5q35 0 70 4t54 14q3 21 6 55.5t2 56.5l17 -21q-19 -7 -48 -12t-55 -5q-88 0 -135 41
t-47 116q0 50 21.5 89t58 61t81.5 22zM452 440q-37 0 -61 -27t-24 -65q0 -40 28.5 -60.5t83.5 -20.5q21 0 43 2.5t39 7.5q-8 86 -35 124.5t-74 38.5zM383 594q-23 0 -36 13.5t-13 35.5q0 23 13 36t36 13t36 -13t13 -36q0 -22 -13 -35.5t-36 -13.5zM523 594q-23 0 -36 13.5
t-13 35.5q0 23 13 36t36 13t36 -13t13 -36q0 -22 -13 -35.5t-36 -13.5z" />
    <glyph glyph-name="feh_alefMaksura.ar" unicode="&#xfc31;" horiz-adv-x="714" arabic-form="isolated" 
d="M453 518q66 0 105 -36t56.5 -98t17.5 -142q0 -56 -4 -92t-17 -57.5t-39 -32t-70 -15.5l2 17q34 -2 62.5 -7t50 -16.5t33.5 -31.5t12 -52q0 -46 -25.5 -82t-70 -60.5t-100 -37t-115.5 -12.5q-95 0 -162 29t-102 86.5t-35 142.5q0 75 20 111.5t46 36.5q12 0 21.5 -3
t15.5 -8q-9 -25 -17 -56t-8 -75q0 -98 58 -141.5t162 -43.5q65 0 118.5 14.5t85.5 41.5t32 62q0 32 -23 40t-57 14q-7 2 -21 4t-27 4q-20 3 -31.5 10t-11.5 28q0 13 4.5 22.5t8.5 14.5q35 0 70 4t54 14q3 21 6 55.5t2 56.5l17 -21q-19 -7 -48 -12t-55 -5q-88 0 -135 41
t-47 116q0 50 21.5 89t58 61t81.5 22zM452 440q-37 0 -61 -27t-24 -65q0 -40 28.5 -60.5t83.5 -20.5q21 0 43 2.5t39 7.5q-8 86 -35 124.5t-74 38.5zM453 595q-23 0 -37 14t-14 37t14 37t37 14t37 -14t14 -37t-14 -37t-37 -14z" />
    <glyph glyph-name="lam_alefMaksura.ar" unicode="&#xfc43;" horiz-adv-x="714" arabic-form="isolated" 
d="M428 97h47q37 0 57 17t20 60l-4 491q5 2 17 4.5t26 2.5q18 0 27 -8.5t9 -26.5l-1 -464q0 -64 -28.5 -92t-88.5 -28l-5 9q34 -2 62.5 -7t50 -16.5t33.5 -31.5t12 -52q0 -46 -25.5 -82t-70 -60.5t-100 -37t-115.5 -12.5q-95 0 -162 29t-102 86.5t-35 142.5q0 75 20 111.5
t46 36.5q12 0 21.5 -3t15.5 -8q-9 -25 -17 -56t-8 -75q0 -98 58 -141.5t162 -43.5q65 0 118.5 14.5t85.5 41.5t32 62q0 32 -23 40t-57 14q-7 2 -21 4t-27 4q-20 3 -31.5 10t-11.5 28q0 13 4.5 22.5t8.5 14.5z" />
    <glyph glyph-name="lam_alefMaksura.ar.fina" unicode="&#xfc86;" horiz-adv-x="820" arabic-form="final" 
d="M651 665q5 2 16.5 4.5t24.5 2.5q18 0 27 -8.5t9 -26.5l-2 -488q0 -29 12 -44t29.5 -20t33.5 -5h27v-80h-16q-27 0 -50 4.5t-40 15.5t-27.5 29t-12.5 45l8 8q0 -29 -32.5 -49t-82.5 -20l-71 29q34 -2 62.5 -7t50 -16.5t33.5 -31.5t12 -52q0 -46 -25.5 -82t-70 -60.5
t-100 -37t-115.5 -12.5q-95 0 -162 29t-102 86.5t-35 142.5q0 75 20 111.5t46 36.5q12 0 21.5 -3t15.5 -8q-9 -25 -17 -56t-8 -75q0 -98 58 -141.5t162 -43.5q65 0 118.5 14.5t85.5 41.5t32 62q0 32 -23 41t-57 14l-21 3t-27 4q-20 3 -31.5 10t-11.5 28q0 13 4.5 22.5
t8.5 14.5h128q34 0 55.5 9.5t31.5 29t10 48.5zM828 0v80q4 -6 7 -16t3 -24t-3.5 -24.5t-6.5 -15.5z" />
    <glyph glyph-name="lam_yeh.ar.fina" unicode="&#xfc87;" horiz-adv-x="820" arabic-form="final" 
d="M651 665q5 2 16.5 4.5t24.5 2.5q18 0 27 -8.5t9 -26.5l-2 -488q0 -29 12 -44t29.5 -20t33.5 -5h27v-80h-16q-27 0 -50 4.5t-40 15.5t-27.5 29t-12.5 45l8 8q0 -29 -32.5 -49t-82.5 -20l-71 29q34 -2 62.5 -7t50 -16.5t33.5 -31.5t12 -52q0 -46 -25.5 -82t-70 -60.5
t-100 -37t-115.5 -12.5q-95 0 -162 29t-102 86.5t-35 142.5q0 75 20 111.5t46 36.5q12 0 21.5 -3t15.5 -8q-9 -25 -17 -56t-8 -75q0 -98 58 -141.5t162 -43.5q65 0 118.5 14.5t85.5 41.5t32 62q0 32 -23 41t-57 14l-21 3t-27 4q-20 3 -31.5 10t-11.5 28q0 13 4.5 22.5
t8.5 14.5h128q34 0 55.5 9.5t31.5 29t10 48.5zM828 0v80q4 -6 7 -16t3 -24t-3.5 -24.5t-6.5 -15.5zM281 -414q-23 0 -36 13.5t-13 35.5q0 23 13 36t36 13t36 -13t13 -36q0 -22 -13 -35.5t-36 -13.5zM421 -414q-23 0 -36 13.5t-13 35.5q0 23 13 36t36 13t36 -13t13 -36
q0 -22 -13 -35.5t-36 -13.5z" />
    <glyph glyph-name="allah.ar" unicode="&#xfdf2;" horiz-adv-x="1203" arabic-form="isolated" 
d="M708 0v80h16q37 0 57 17t20 60l-2 428q5 2 16.5 4.5t24.5 2.5q18 0 27 -8.5t9 -26.5l-2 -401q0 -63 -23 -96.5t-57 -46.5t-69 -13h-17zM447 0v80h19q16 0 35 5t33.5 20t14.5 46l-2 434q5 2 17 4.5t25 2.5q17 0 26 -8.5t9 -26.5l-2 -408q0 -29 12 -44t29.5 -20t33.5 -5h27
v-80h-26q-31 0 -57 10.5t-42.5 30t-19.5 46.5h8q-1 -22 -14 -42t-38 -32.5t-62 -12.5h-26zM573 842q-13 0 -18 6.5t-5 21.5l-1 110q5 2 10 3t12 1q14 0 18 -7t4 -18l-1 -113q-4 -1 -8.5 -2.5t-10.5 -1.5zM1082 -7q-22 0 -31.5 8.5t-9.5 26.5l-4 637q5 2 16.5 4.5t23.5 2.5
q39 0 39 -34l-1 -638q-5 -2 -13.5 -4.5t-19.5 -2.5zM724 0v80q4 -6 7 -16t3 -24t-3.5 -24.5t-6.5 -15.5zM517 661q-31 0 -53 19.5t-22 60.5q0 43 13.5 57.5t29.5 14.5q5 0 9.5 -1.5t7.5 -3.5q-4 -10 -7.5 -24t-3.5 -28q0 -25 8 -37t23 -12q16 0 23 9.5t7 25.5v49q7 3 13.5 4
t12.5 1q10 0 18 -2l6 -48q2 -13 10 -20t19 -7q17 0 23.5 11.5t6.5 29.5q0 15 -5 38t-10 32q4 3 10 5t13 2q17 0 29 -18.5t12 -66.5q0 -43 -22 -61t-51 -18q-22 0 -39 11t-22 35l7 -6q-1 -19 -18 -35.5t-48 -16.5zM463 0v80q4 -6 7 -16t3 -24t-3.5 -24.5t-6.5 -15.5zM314 116
l42 -23q-17 -23 -50.5 -39.5t-85.5 -16.5q-82 0 -127.5 39t-45.5 112q0 36 13.5 67.5t47 58.5t93.5 51l112 44v-80l-94 -35q-54 -20 -75 -45t-21 -56q0 -35 25 -55t74 -21q35 0 59.5 9.5t43.5 22.5l-21 -57v348q0 33 37 33q11 0 22 -2.5t16 -4.5v-320q0 -37 20 -51.5
t57 -14.5h7v-80h-12q-51 0 -90 26t-47 90z" />
    <glyph glyph-name=".notdef" horiz-adv-x="645" 
d="M159 0q-28 0 -44 16t-16 44v529q0 28 15.5 44t43.5 16h328q29 0 44.5 -16t15.5 -44v-529q0 -28 -15.5 -44t-44.5 -16h-327zM180 68h286v513h-286v-513z" />
    <glyph glyph-name="NULL" 
 />
    <glyph glyph-name="CR" unicode="&#xd;" horiz-adv-x="223" 
 />
    <glyph glyph-name="space" unicode=" " horiz-adv-x="200" 
 />
    <glyph glyph-name="exclam" unicode="!" horiz-adv-x="250" 
d="M164 582v0q0 -30 -0.5 -78.5t-2 -105t-3.5 -112t-4 -99.5q-6 -4 -14.5 -7t-18.5 -3q-14 0 -23 6t-10 19q-2 29 -4 80t-3 111.5t-1.5 118.5t-0.5 100q21 13 45 13q19 0 29.5 -10.5t10.5 -32.5zM66 45v0q0 24 15 40t41 16t41 -16t15 -40t-15 -40t-41 -16t-41 16t-15 40z
" />
    <glyph glyph-name="quotedbl" unicode="&#x22;" horiz-adv-x="270" 
d="M101 418v0q-7 -3 -14.5 -4.5t-16.5 -1.5q-15 0 -23.5 7t-9.5 22l-6 174q18 10 39 10q18 0 27.5 -9.5t9.5 -29.5q0 -17 -1 -48t-2.5 -63.5t-2.5 -56.5zM234 418v0q-7 -3 -15.5 -4.5t-16.5 -1.5q-16 0 -23.5 7t-8.5 22l-7 174q9 5 18.5 7.5t21.5 2.5q18 0 27 -9.5t9 -30.5
q0 -16 -1 -47t-2 -63.5t-2 -56.5z" />
    <glyph glyph-name="numbersign" unicode="#" horiz-adv-x="667" 
d="M566 162h-517q-2 6 -4 13.5t-2 15.5q0 17 8.5 25t24.5 8h518q2 -6 4 -13.5t2 -16.5q0 -16 -8.5 -24t-25.5 -8zM596 396h-517q-2 6 -4.5 13t-2.5 16q0 17 9 25t25 8h518q2 -6 4 -13.5t2 -16.5q0 -16 -8.5 -24t-25.5 -8zM307 532l-112 -535q-5 -1 -11.5 -1.5t-13.5 -0.5
q-16 0 -25.5 8t-9.5 24q0 10 3 24.5t6 24.5l112 535q5 1 12 1.5t13 0.5q16 0 25.5 -7.5t9.5 -24.5q0 -10 -3.5 -24t-5.5 -25zM523 532l-112 -535q-5 -1 -11.5 -1.5t-13.5 -0.5q-16 0 -25.5 8t-9.5 24q0 10 3 24.5t5 24.5l113 535q5 1 12 1.5t13 0.5q16 0 25.5 -7.5
t9.5 -24.5q0 -10 -3.5 -24t-5.5 -25z" />
    <glyph glyph-name="dollar" unicode="$" horiz-adv-x="522" 
d="M221 25h73v-114q-4 -1 -12.5 -3t-19.5 -2q-19 0 -30 8.5t-11 24.5v86zM294 568h-73v129q5 2 14 3.5t19 1.5q20 0 30 -8.5t10 -24.5v-101zM257 55v0q67 0 101.5 30.5t34.5 78.5q0 41 -26.5 67.5t-83.5 43.5l-87 26q-42 13 -73 33.5t-47.5 51t-16.5 71.5q0 77 56 120.5
t149 43.5q54 0 96.5 -11.5t67 -29.5t24.5 -38q0 -13 -7 -23.5t-18 -16.5q-25 20 -67.5 35t-92.5 15q-58 0 -92 -25.5t-34 -69.5q0 -35 24.5 -57t79.5 -38l61 -18q79 -22 124.5 -64t45.5 -116q0 -79 -57.5 -128t-161.5 -49q-61 0 -106.5 13.5t-71 34t-25.5 40.5
q0 17 10.5 28.5t24.5 16.5q23 -22 65 -43.5t103 -21.5z" />
    <glyph glyph-name="percent" unicode="%" horiz-adv-x="772" 
d="M335 474v0q0 -65 -41 -103.5t-100 -38.5t-100 38.5t-41 103.5t41 103.5t100 38.5t100 -38.5t41 -103.5zM124 474v0q0 -39 19.5 -60.5t50.5 -21.5t50.5 21.5t19.5 60.5t-19.5 60.5t-50.5 21.5t-50.5 -21.5t-19.5 -60.5zM186 65l368 551q23 -3 36.5 -11.5t13.5 -22.5
q0 -10 -4 -19.5t-12 -20.5l-367 -549q-22 2 -36 12t-14 23q0 8 4 17t11 20zM719 135v0q0 -66 -41 -104.5t-100 -38.5q-58 0 -99.5 38.5t-41.5 104.5q0 65 41.5 103t99.5 38q59 0 100 -38t41 -103zM508 135v0q0 -40 19.5 -61.5t50.5 -21.5t50.5 21.5t19.5 61.5
q0 38 -19.5 59.5t-50.5 21.5t-50.5 -21.5t-19.5 -59.5z" />
    <glyph glyph-name="ampersand" unicode="&#x26;" horiz-adv-x="637" 
d="M509 102l-29 -34q-34 -37 -83 -60t-118 -23t-120.5 25t-80 70.5t-28.5 106.5q0 51 20.5 89.5t55.5 64.5t78 37l35 -59q-27 -6 -51.5 -22.5t-40.5 -44t-16 -66.5q0 -60 39.5 -96.5t109.5 -36.5q38 0 78.5 16t74.5 55l22 32q18 33 28.5 83t10.5 114q9 4 18.5 6.5t18.5 2.5
q20 0 30 -11.5t10 -33.5q0 -56 -16.5 -115t-45.5 -100zM565 -14v0q-20 0 -40 23l-306 320l-25 28q-31 32 -46 62.5t-15 65.5q0 41 18.5 71.5t54 47.5t86.5 17q53 0 80.5 -15t27.5 -38q0 -12 -6.5 -21.5t-14.5 -14.5q-16 9 -37.5 15t-44.5 6q-38 0 -60 -18.5t-22 -50.5
q0 -31 16 -55t46 -55l332 -345q-3 -20 -14 -31.5t-30 -11.5z" />
    <glyph glyph-name="quotesingle" unicode="'" horiz-adv-x="139" 
d="M103 418v0q-7 -2 -15.5 -4t-17.5 -2q-15 0 -23.5 7.5t-9.5 21.5l-6 174q8 5 17.5 7.5t22.5 2.5q19 0 28.5 -9.5t9.5 -30.5q0 -17 -1 -47.5t-2 -63t-3 -56.5z" />
    <glyph glyph-name="parenleft" unicode="(" horiz-adv-x="254" 
d="M204 -116v0q-16 0 -29 11.5t-27 31.5q-45 64 -69 149.5t-24 197.5q0 111 28 198.5t65 142.5q13 20 26.5 31t29.5 11q14 0 24.5 -8t15.5 -20q-54 -69 -83.5 -158.5t-29.5 -196.5t26.5 -193t86.5 -168q-5 -12 -15.5 -20.5t-24.5 -8.5z" />
    <glyph glyph-name="parenright" unicode=")" horiz-adv-x="254" 
d="M50 -116q-14 0 -24.5 8.5t-15.5 20.5q60 82 86.5 168t26.5 193t-29.5 196.5t-83.5 158.5q5 12 15.5 20t24.5 8q16 0 29.5 -11t26.5 -31q37 -55 65 -142.5t28 -198.5q0 -112 -24 -197.5t-69 -149.5q-13 -20 -26.5 -31.5t-29.5 -11.5v0z" />
    <glyph glyph-name="asterisk" unicode="*" horiz-adv-x="299" 
d="M146 535l22 -57l-145 48q-3 11 -3 21q0 14 8.5 23t21.5 9q5 0 10 -2t11 -4zM181 510l-81 -119q-4 -1 -7 -1h-6q-19 0 -28.5 8.5t-9.5 20.5q0 8 3.5 15t8.5 12l52 58zM135 490l27 46l96 -115q-2 -13 -12.5 -22t-22.5 -9q-11 0 -20 8.5t-16 17.5zM124 515l130 73
q9 -4 17 -13.5t8 -21.5t-7 -18t-18 -11l-84 -40zM176 520l-50 -28l-5 148q5 3 13 6t18 3q13 0 21.5 -6t8.5 -20q0 -6 -1.5 -27t-3 -43.5t-1.5 -32.5z" />
    <glyph glyph-name="plus" unicode="+" horiz-adv-x="548" 
d="M462 266h-404q-3 7 -5 14.5t-2 17.5q0 17 9.5 25.5t25.5 8.5h404q2 -6 4.5 -14t2.5 -17q0 -16 -9 -25.5t-26 -9.5zM312 488v-415q-7 -3 -15 -5t-19 -2q-20 0 -29.5 9t-9.5 31v415q8 3 16.5 5t20.5 2q19 0 27.5 -9t8.5 -31z" />
    <glyph glyph-name="comma" unicode="," horiz-adv-x="145" 
d="M68 -94v0q-16 -27 -39 -27q-22 0 -36 17q9 26 20.5 61.5t21.5 72.5t15 64q8 4 17.5 6.5t20.5 2.5q18 0 28 -8.5t10 -28.5q0 -22 -10.5 -54.5t-24.5 -62t-23 -43.5z" />
    <glyph glyph-name="hyphen" unicode="-" horiz-adv-x="389" 
d="M300 228h-239q-3 7 -5 14.5t-2 17.5q0 17 9.5 25.5t25.5 8.5h239q2 -6 4.5 -14t2.5 -17q0 -16 -9 -25.5t-26 -9.5z" />
    <glyph glyph-name="period" unicode="." horiz-adv-x="141" 
d="M16 42v0q0 24 14.5 40t40.5 16t40 -16t14 -40q0 -23 -14 -39t-40 -16t-40.5 16t-14.5 39z" />
    <glyph glyph-name="slash" unicode="/" horiz-adv-x="305" 
d="M274 621l-185 -726q-6 -1 -12 -1.5t-14 -0.5q-19 0 -29 9.5t-10 26.5q0 11 4 26t6 24l184 726q7 1 13 1.5t13 0.5q17 0 28 -8.5t11 -27.5q0 -11 -3 -24.5t-6 -25.5z" />
    <glyph glyph-name="zero" unicode="0" horiz-adv-x="583" 
d="M447 304v0q0 89 -21.5 143.5t-56.5 79.5t-78 25q-42 0 -77.5 -25.5t-56.5 -80.5t-21 -142q0 -120 41 -184.5t114 -64.5q74 0 115 64.5t41 184.5zM291 -13v0q-70 0 -123.5 34.5t-83.5 105t-30 177.5q0 115 34 184t88 100.5t115 31.5q62 0 116.5 -32t88 -101.5t33.5 -182.5
q0 -106 -30 -176.5t-83.5 -105.5t-124.5 -35z" />
    <glyph glyph-name="one" unicode="1" horiz-adv-x="357" 
d="M254 224h-81v306l-128 -60q-13 5 -21.5 15t-8.5 25q0 29 36 44l140 61h19q20 0 32 -12t12 -32v-347zM173 264h81v-265q-6 -2 -16 -4.5t-22 -2.5q-21 0 -32 9t-11 28v235z" />
    <glyph glyph-name="two" unicode="2" horiz-adv-x="508" 
d="M57 545v0q0 18 23 35.5t62 28.5t85 11q64 0 110 -21.5t71 -60.5t25 -92q0 -55 -30.5 -108t-104.5 -121l-163 -151h297q4 -4 7 -12.5t3 -19.5q0 -16 -8.5 -25t-22.5 -9h-353q-10 7 -15 17.5t-5 22.5q0 16 6 28.5t18 23.5l180 173q62 58 85 97.5t23 82.5q0 47 -32 77
t-97 30q-44 0 -78.5 -15t-57.5 -32q-11 5 -19.5 15t-8.5 25z" />
    <glyph glyph-name="three" unicode="3" horiz-adv-x="506" 
d="M217 621v0q95 0 153.5 -41.5t58.5 -124.5q0 -40 -16.5 -68.5t-39 -44.5t-40.5 -21q27 -8 53 -27.5t43.5 -50t17.5 -73.5q0 -60 -29 -100t-80 -60.5t-118 -20.5q-55 0 -97.5 11.5t-66.5 29.5t-24 38q0 14 7.5 24t19.5 17q26 -20 63.5 -36t97.5 -16q66 0 107 28.5t41 86.5
q0 51 -38 82t-110 31h-83q-4 5 -7 14.5t-3 19.5q0 11 3 20t7 14h76q74 0 105.5 27.5t31.5 72.5q0 49 -36 74.5t-98 25.5q-48 0 -84.5 -14.5t-60.5 -31.5q-10 5 -18 16t-8 24q0 18 23 35t62 28t87 11z" />
    <glyph glyph-name="four" unicode="4" horiz-adv-x="548" 
d="M32 223l291 386q9 2 20.5 3.5t20.5 1.5q14 0 26.5 -4t20.5 -14.5t8 -30.5v-350h100q3 -5 6 -13.5t3 -19.5q0 -16 -8 -25t-23 -9h-78v-150q-5 -1 -14.5 -3.5t-20.5 -2.5q-21 0 -32 9t-11 26v121h-289q-10 5 -17.5 18t-7.5 29q0 9 1.5 15.5t3.5 12.5zM342 215l2 315h-2
l-222 -315h222z" />
    <glyph glyph-name="five" unicode="5" horiz-adv-x="538" 
d="M204 608l-27 -59l-17 -189q17 9 47.5 17.5t64.5 8.5q60 0 108 -22.5t76.5 -66t28.5 -107.5q0 -58 -26.5 -104t-77 -72.5t-123.5 -26.5q-57 0 -100 13t-67 32t-24 37q0 16 10.5 28t21.5 16q22 -19 62 -39t97 -20q69 0 107 38.5t38 97.5q0 61 -39 95t-102 34q-35 0 -64 -11
t-54 -25q-27 2 -43.5 16.5t-16.5 37.5q0 6 0.5 15.5t1.5 18.5l17 191q2 21 13 33.5t32 12.5h56zM162 540v68h292q3 -4 6 -13t3 -19q0 -16 -8 -26t-23 -10h-270z" />
    <glyph glyph-name="six" unicode="6" horiz-adv-x="550" 
d="M455 561v0q0 -12 -6.5 -22.5t-16.5 -15.5q-22 11 -49.5 19.5t-59.5 8.5q-78 0 -131.5 -56t-56.5 -175q20 20 61.5 42.5t102.5 22.5q88 0 145 -50t57 -148q0 -62 -26.5 -107t-74 -69t-112.5 -24q-67 0 -120 30.5t-83.5 96t-30.5 171.5q0 94 22.5 158.5t60.5 103t86 56
t98 17.5q35 0 65.5 -7t49.5 -20t19 -32zM288 54v0q58 0 95 35.5t37 99.5q0 65 -37.5 96.5t-92.5 31.5t-95 -23.5t-63 -56.5l3 7q0 -85 40 -137.5t113 -52.5z" />
    <glyph glyph-name="seven" unicode="7" horiz-adv-x="458" 
d="M55 608h360q11 -6 17 -16.5t6 -23.5q0 -10 -2.5 -20t-8.5 -22l-251 -530q-6 -1 -11.5 -1h-11.5q-19 0 -33 9.5t-14 26.5q0 12 5 23.5t12 26.5l226 459h-316q-3 5 -6 13.5t-3 18.5q0 17 8 26.5t23 9.5z" />
    <glyph glyph-name="eight" unicode="8" horiz-adv-x="569" 
d="M212 328l60 10q72 14 108 41.5t36 73.5q0 47 -35 73.5t-96 26.5q-59 0 -95 -27t-36 -72q0 -38 20.5 -61t55 -34.5t75.5 -15.5l44 -15q41 -8 78 -28.5t60 -54.5t23 -85q0 -54 -28.5 -93t-79 -59.5t-117.5 -20.5q-68 0 -119 20.5t-79 59.5t-28 94q0 49 22.5 83.5t57.5 55.5
t73 28zM350 307l-68 -14q-64 -10 -103.5 -43.5t-39.5 -87.5q0 -51 39 -79.5t107 -28.5q65 0 105 28t40 81q0 58 -48.5 92t-129.5 39l-51 15q-58 16 -92.5 52t-34.5 94q0 51 26.5 88t74 57t110.5 20q98 0 154.5 -44.5t56.5 -122.5q0 -63 -42.5 -99t-103.5 -47z" />
    <glyph glyph-name="nine" unicode="9" horiz-adv-x="552" 
d="M82 49v0q0 12 6.5 23t16.5 16q19 -11 49.5 -21.5t72.5 -10.5q52 0 95 22t69 72.5t26 133.5q-9 -10 -29.5 -24.5t-51.5 -25.5t-72 -11q-56 0 -105 19.5t-78.5 62.5t-29.5 113q0 63 28 108.5t76 69.5t107 24q69 0 122 -31.5t83.5 -97t30.5 -168.5q0 -122 -34 -196
t-94.5 -107t-141.5 -33q-60 0 -103 16t-43 46zM275 290v0q51 0 90.5 25.5t52.5 56.5l-1 -11q0 89 -40.5 140.5t-114.5 51.5q-55 0 -92.5 -35.5t-37.5 -97.5q0 -69 42 -99.5t101 -30.5z" />
    <glyph glyph-name="colon" unicode=":" horiz-adv-x="189" 
d="M40 392v0q0 24 14.5 40t39.5 16q26 0 40.5 -16t14.5 -40t-14.5 -39.5t-40.5 -15.5q-25 0 -39.5 15.5t-14.5 39.5zM40 42v0q0 24 14 40t40 16t40.5 -16t14.5 -40q0 -23 -14.5 -39t-40.5 -16t-40 16t-14 39z" />
    <glyph glyph-name="semicolon" unicode=";" horiz-adv-x="202" 
d="M46 392v0q0 24 14 40t40 16t40.5 -16t14.5 -40t-14.5 -39.5t-40.5 -15.5t-40 15.5t-14 39.5zM89 -94v0q-16 -27 -39 -27q-22 0 -36 17q9 26 20.5 61.5t21.5 72.5t15 64q8 4 17.5 6.5t20.5 2.5q18 0 28 -8.5t10 -28.5q0 -22 -10.5 -54.5t-24.5 -62t-23 -43.5z" />
    <glyph glyph-name="less" unicode="&#x3c;" horiz-adv-x="473" 
d="M132 301l308 -160q1 -5 1 -9v-9q0 -15 -10 -25t-27 -10q-7 0 -16 3.5t-19 9.5l-305 166q-10 15 -10 33q0 15 5 24.5t12 13.5l334 171q17 -6 25 -16t8 -22q0 -16 -10 -26t-26 -20z" />
    <glyph glyph-name="equal" unicode="=" horiz-adv-x="518" 
d="M431 363h-373q-3 6 -5 14t-2 17q0 17 9.5 25.5t25.5 8.5h374q2 -6 4 -13.5t2 -17.5q0 -16 -9 -25t-26 -9zM431 161h-373q-3 6 -5 13.5t-2 17.5q0 17 9.5 25.5t25.5 8.5h374q2 -6 4 -14t2 -17q0 -16 -9 -25t-26 -9z" />
    <glyph glyph-name="greater" unicode="&#x3e;" horiz-adv-x="460" 
d="M331 302l-298 157q-1 5 -1 9.5v8.5q0 14 10 24.5t26 10.5q8 0 16.5 -3.5t18.5 -8.5l296 -166q10 -15 10 -34q0 -15 -4.5 -24t-12.5 -14l-324 -170q-17 5 -25 15.5t-8 22.5q0 16 10 26t26 19z" />
    <glyph glyph-name="question" unicode="?" horiz-adv-x="459" 
d="M213 224l-98 -24q-9 9 -14.5 20t-5.5 24q0 14 8 23t28 14l69 18q66 17 101.5 50.5t35.5 87.5q0 48 -34.5 82.5t-107.5 34.5q-40 0 -80.5 -12.5t-64.5 -32.5q-11 8 -17 19t-6 24q0 29 48 51t123 22q66 0 116 -24t78 -66t28 -97q0 -84 -51.5 -136t-155.5 -78zM104 45v0
q0 24 15.5 40.5t40.5 16.5q26 0 41.5 -16.5t15.5 -40.5t-15.5 -40t-41.5 -16q-25 0 -40.5 16t-15.5 40z" />
    <glyph glyph-name="at" unicode="@" horiz-adv-x="1000" 
d="M380 200v0q0 -64 32.5 -99t90.5 -35q35 0 63 15t54 46l12 -74q-21 -22 -55 -37.5t-85 -15.5q-87 0 -140.5 53t-53.5 147q0 72 29 123.5t80.5 78.5t120.5 27q35 0 68 -8t56 -20q41 -20 41 -49q0 -7 -0.5 -15t-1.5 -15l-26 -262h-79l28 284q-16 8 -39 13.5t-52 5.5
q-64 0 -103.5 -42.5t-39.5 -120.5zM608 37v0q5 15 11.5 27.5t14 19.5t16.5 7q12 -10 30.5 -20t45.5 -10q65 0 98 57.5t33 148.5q0 95 -42 167t-118.5 112.5t-180.5 40.5q-116 0 -202 -48t-133 -134t-47 -201q0 -109 44 -190t123.5 -125.5t184.5 -44.5q38 0 67 4.5t49 10.5
q6 -6 9.5 -14t3.5 -17q0 -15 -12.5 -26t-42 -17t-80.5 -6q-76 0 -141.5 19t-118 55.5t-89.5 88.5t-56.5 118t-19.5 144q0 101 32.5 183.5t93 141.5t145 91t189.5 32q98 0 176 -27.5t132.5 -78.5t83.5 -122t29 -158q0 -129 -53 -200t-157 -71q-31 0 -62.5 11t-55.5 31z" />
    <glyph glyph-name="A" unicode="A" horiz-adv-x="592" 
d="M298 545h-4q-15 -42 -35.5 -100t-42 -119.5t-40.5 -114.5l-5 -15l-15 -45t-19 -56.5t-19 -55t-14 -41.5q-7 -3 -14.5 -4.5t-18.5 -1.5q-16 0 -28.5 8.5t-12.5 27.5q0 9 3 18.5t7 20.5q12 34 29.5 83t38.5 107t44 119t45 119t41 106q8 4 24 8t33 4q20 0 38.5 -6t23.5 -20
q24 -58 51.5 -131.5t55.5 -153t53.5 -154.5t45.5 -136q-7 -9 -18.5 -14.5t-25.5 -5.5q-19 0 -29 8.5t-17 28.5l-55 163l-8 28q-20 61 -41.5 123t-40 115t-30.5 87zM132 162l26 67h279l16 -67h-321z" />
    <glyph glyph-name="B" unicode="B" horiz-adv-x="599" 
d="M420 349v-66h-275v66h275zM305 283l32 50q68 0 113 -22.5t67.5 -59.5t22.5 -83q0 -91 -65.5 -135t-186.5 -44q-27 0 -54 1.5t-53 5.5t-50 10q-42 12 -42 46v512q0 16 8.5 25t24.5 13q34 10 72.5 13.5t82.5 3.5q113 0 176 -40.5t63 -123.5q0 -42 -20.5 -77.5t-66 -57
t-121.5 -21.5l-9 50q66 0 100 27.5t34 76.5q0 50 -39.5 74.5t-116.5 24.5q-34 0 -60 -2.5t-48 -6.5v-476q24 -5 55.5 -8t63.5 -3q83 0 126 28t43 86q0 52 -38.5 82.5t-113.5 30.5z" />
    <glyph glyph-name="C" unicode="C" horiz-adv-x="588" 
d="M533 541v0q0 -13 -8.5 -23.5t-19.5 -15.5q-25 18 -60.5 34t-91.5 16q-61 0 -109.5 -28t-77 -83.5t-28.5 -137.5q0 -123 60.5 -185t157.5 -62q52 0 91 15t64 34q10 -4 19 -14.5t9 -24.5q0 -10 -5.5 -19.5t-18.5 -18.5q-23 -16 -63 -28.5t-102 -12.5q-83 0 -150.5 35.5
t-106.5 105.5t-39 175t40.5 176t107 106.5t145.5 35.5q55 0 97 -12t65.5 -30.5t23.5 -37.5z" />
    <glyph glyph-name="D" unicode="D" horiz-adv-x="652" 
d="M515 311v0q0 -125 -60 -189.5t-177 -64.5q-29 0 -56.5 2t-51.5 8v476q20 4 44 6t55 2q68 0 123.5 -24.5t89 -77t33.5 -138.5zM598 311v0q0 103 -41.5 171t-115 102.5t-171.5 34.5q-39 0 -78 -3t-70 -13q-16 -5 -24.5 -13.5t-8.5 -24.5v-514q0 -33 42 -46
q36 -11 76.5 -13.5t71.5 -2.5q97 0 168.5 35t111 106.5t39.5 180.5z" />
    <glyph glyph-name="E" unicode="E" horiz-adv-x="531" 
d="M89 366h81v-358q-4 -1 -15 -4.5t-22 -3.5q-20 0 -32 12.5t-12 31.5v322zM170 248l-81 1v315q0 20 12 32t32 12q11 0 22 -3t15 -5v-352zM133 278v68h301q3 -4 6 -13t3 -19q0 -16 -8 -26t-23 -10h-279zM133 0v68h337q3 -4 6 -12.5t3 -19.5q0 -16 -8 -26t-23 -10h-315z
M133 539v69h332q3 -4 6 -13t3 -19q0 -16 -8 -26.5t-23 -10.5h-310z" />
    <glyph glyph-name="F" unicode="F" horiz-adv-x="517" 
d="M170 246l-81 1v317q0 20 12 32t32 12q11 0 22 -3t15 -5v-354zM133 262v69h297q3 -5 6 -13.5t3 -18.5q0 -16 -8 -26.5t-23 -10.5h-275zM133 539v69h332q3 -4 6 -13t3 -19q0 -16 -8 -26.5t-23 -10.5h-310zM89 356h82v-355q-5 -1 -15.5 -3.5t-21.5 -2.5q-22 0 -33.5 9
t-11.5 27v325z" />
    <glyph glyph-name="G" unicode="G" horiz-adv-x="639" 
d="M570 287v-217q0 -18 -10.5 -30.5t-31.5 -22.5q-25 -13 -69 -21.5t-89 -8.5q-93 0 -164.5 34t-111.5 104t-40 178q0 107 41.5 177.5t110.5 105.5t151 35q57 0 100 -12t67 -30t24 -37q0 -13 -8 -23.5t-19 -15.5q-27 18 -64 33.5t-95 15.5q-63 0 -114 -28t-80.5 -83.5
t-29.5 -137.5q0 -86 30.5 -140.5t83.5 -80.5t119 -26q36 0 68 6t50 15v184h-151q-3 5 -6 13.5t-3 18.5q0 17 8 26.5t23 9.5h167q18 0 30.5 -11.5t12.5 -30.5z" />
    <glyph glyph-name="H" unicode="H" horiz-adv-x="654" 
d="M89 362h82v-360q-6 -2 -16 -4.5t-22 -2.5q-22 0 -33 9t-11 28v330zM171 295h-82v311q5 2 15.5 4.5t22.5 2.5q22 0 33 -8.5t11 -28.5v-281zM483 362h82v-360q-6 -2 -16 -4.5t-22 -2.5q-22 0 -33 9t-11 28v330zM565 295h-82v311q5 2 15.5 4.5t22.5 2.5q22 0 33 -8.5
t11 -28.5v-281zM526 274h-388v68h388v-68z" />
    <glyph glyph-name="I" unicode="I" horiz-adv-x="262" 
d="M90 363h81v-361q-5 -2 -15 -4.5t-22 -2.5q-22 0 -33 9t-11 28v331zM171 296h-81v310q5 2 15.5 4.5t22.5 2.5q22 0 32.5 -8.5t10.5 -28.5v-280z" />
    <glyph glyph-name="J" unicode="J" horiz-adv-x="385" 
d="M215 289h81v-141q0 -60 -22.5 -95t-59.5 -49.5t-80 -14.5q-56 0 -82.5 13.5t-26.5 35.5q0 14 6 24t11 15q15 -7 36.5 -13t43.5 -6q45 0 69 22t24 72v137zM296 265h-81v341q5 2 15.5 4.5t21.5 2.5q22 0 33 -8.5t11 -28.5v-311z" />
    <glyph glyph-name="K" unicode="K" horiz-adv-x="566" 
d="M152 310l63 40q106 -102 182.5 -182t129.5 -128q-1 -22 -13 -34.5t-30 -12.5q-17 0 -30.5 10t-27.5 23zM226 282l-81 18l301 312q26 -1 39 -13t13 -28q0 -13 -6.5 -24.5t-20.5 -23.5zM89 367h82v-366q-6 -2 -16 -4.5t-22 -2.5q-22 0 -33 9t-11 28v336zM171 300h-82v306
q5 2 15.5 4.5t22.5 2.5q22 0 33 -8.5t11 -28.5v-276z" />
    <glyph glyph-name="L" unicode="L" horiz-adv-x="501" 
d="M89 355h82v-347l-38 -8q-19 0 -31.5 12.5t-12.5 31.5v311zM133 0v70h325q5 -4 8 -13t3 -20q0 -17 -9 -27t-24 -10h-303zM171 295h-82v311q5 2 15.5 4.5t22.5 2.5q22 0 33 -8.5t11 -28.5v-281z" />
    <glyph glyph-name="M" unicode="M" horiz-adv-x="780" 
d="M435 158v0q-7 -5 -18.5 -9t-25.5 -4q-16 0 -28.5 5t-17.5 16q-53 112 -92.5 205t-63.5 154h-4q-3 -75 -6.5 -140t-7.5 -125.5t-7.5 -124t-8.5 -135.5q-6 -2 -15.5 -4t-20.5 -2q-22 0 -31 9.5t-9 25.5q0 12 2.5 55.5t6 106.5t8.5 134.5t10.5 141t10.5 125.5q8 7 23 13
t34 6q23 0 39 -9t25 -28q26 -51 52 -111t51 -120t48 -113h4q44 106 87.5 204t73.5 167q9 5 23 7.5t26 2.5q23 0 36.5 -7.5t17.5 -24.5t9 -58t10 -96.5t9.5 -116.5t8.5 -120t7.5 -106.5t4.5 -75.5q-9 -6 -19 -9t-23 -3q-15 0 -26.5 7.5t-13.5 27.5q-6 97 -11.5 191.5
t-9.5 173.5t-7 129h-4q-22 -55 -60 -141.5t-97 -223.5z" />
    <glyph glyph-name="N" unicode="N" horiz-adv-x="660" 
d="M89 539l68 6q4 -31 7 -73t4.5 -86.5t1.5 -84.5v-299q-5 -2 -15.5 -4.5t-21.5 -2.5q-22 0 -33 8.5t-11 27.5v508zM571 69l-69 -6q-10 84 -11.5 171.5t-1.5 169.5v202q6 2 16 4.5t22 2.5q22 0 33 -8.5t11 -27.5v-508zM571 99v4v-92q-9 -7 -23 -12t-31 -5q-24 0 -41 9.5
t-31 34.5l-190 320q-15 27 -33 59.5t-34 62t-25 48.5l-74 -19v87q8 8 22.5 13t31.5 5q24 0 41 -9.5t31 -34.5l191 -320q16 -27 33.5 -59.5t32.5 -62t24 -48.5z" />
    <glyph glyph-name="O" unicode="O" horiz-adv-x="689" 
d="M634 304v0q0 -104 -38 -174.5t-103.5 -106.5t-148.5 -36q-82 0 -148 36t-104 106.5t-38 174.5t39 174.5t104.5 106.5t146.5 36q82 0 147.5 -36t104 -106.5t38.5 -174.5zM551 304v0q0 119 -56.5 183.5t-150.5 64.5q-93 0 -149.5 -64.5t-56.5 -183.5t56 -183.5t150 -64.5
q95 0 151 64.5t56 183.5z" />
    <glyph glyph-name="P" unicode="P" horiz-adv-x="567" 
d="M170 285h97q80 0 124 33.5t44 101.5t-42.5 99.5t-121.5 31.5q-27 0 -53.5 -2.5t-47.5 -6.5v-257zM272 217h-183v347q0 16 8.5 24.5t24.5 13.5q29 9 70.5 13t80.5 4q127 0 185.5 -53.5t58.5 -144.5q0 -62 -26.5 -108t-80.5 -71t-138 -25zM89 256h82v-254q-6 -2 -16 -4.5
t-22 -2.5q-22 0 -33 9t-11 28v224z" />
    <glyph glyph-name="Q" unicode="Q" horiz-adv-x="690" 
d="M330 0l77 24q63 -36 105 -57t75.5 -35t70.5 -28q2 -7 2 -11.5v-8.5q0 -19 -11.5 -30.5t-32.5 -11.5q-32 0 -84 27.5t-117 72.5zM634 304v0q0 -104 -38 -174.5t-103.5 -106.5t-148.5 -36q-82 0 -148 36t-104 106.5t-38 174.5t39 174.5t104.5 106.5t146.5 36
q82 0 147.5 -36t104 -106.5t38.5 -174.5zM551 304v0q0 119 -56.5 183.5t-150.5 64.5q-93 0 -149.5 -64.5t-56.5 -183.5t56 -183.5t150 -64.5q95 0 151 64.5t56 183.5z" />
    <glyph glyph-name="R" unicode="R" horiz-adv-x="589" 
d="M170 298h115q74 0 116 32t42 95q0 62 -44 94t-126 32q-27 0 -54.5 -2.5t-48.5 -6.5v-244zM285 230h-196v334q0 16 8.5 24.5t24.5 13.5q29 9 71.5 13t82.5 4q125 0 187 -51t62 -143q0 -59 -27 -103t-80 -68t-133 -24zM287 256l60 30q28 -35 58 -73t58 -74t50 -64.5
t34 -44.5q-4 -17 -17.5 -27t-27.5 -10q-17 0 -28 8.5t-23 24.5zM89 252h82v-250q-6 -2 -16 -4.5t-22 -2.5q-22 0 -33 9t-11 28v220z" />
    <glyph glyph-name="S" unicode="S" horiz-adv-x="523" 
d="M257 55v0q67 0 101.5 30.5t34.5 78.5q0 41 -26.5 67.5t-83.5 43.5l-87 26q-42 13 -73 33.5t-47.5 51t-16.5 71.5q0 77 56 120.5t149 43.5q54 0 96.5 -11.5t67 -29.5t24.5 -38q0 -13 -7 -23.5t-18 -16.5q-25 20 -67.5 35t-92.5 15q-58 0 -92 -25.5t-34 -69.5
q0 -35 24.5 -57t79.5 -38l61 -18q79 -22 124.5 -64t45.5 -116q0 -79 -57.5 -128t-161.5 -49q-61 0 -106.5 13.5t-71 34t-25.5 40.5q0 17 10.5 28.5t24.5 16.5q23 -22 65 -43.5t103 -21.5z" />
    <glyph glyph-name="T" unicode="T" horiz-adv-x="523" 
d="M261 539l-5 69h233q3 -4 6 -13t3 -19q0 -16 -8 -26.5t-23 -10.5h-206zM263 608l5 -69h-234q-3 5 -6 14t-3 19q0 17 8 26.5t23 9.5h207zM221 566h81v-564q-5 -2 -15.5 -4.5t-21.5 -2.5q-22 0 -33 9t-11 28v534z" />
    <glyph glyph-name="U" unicode="U" horiz-adv-x="649" 
d="M324 -13v0q-75 0 -128 27.5t-80.5 78t-27.5 117.5v82h81v-75q0 -80 44.5 -120.5t110.5 -40.5t110.5 40.5t44.5 120.5v75h82v-82q0 -67 -27.5 -117.5t-80.5 -78t-129 -27.5zM169 251h-81v355q5 2 15.5 4.5t22.5 2.5q22 0 32.5 -8.5t10.5 -28.5v-325zM561 251h-82v355
q5 2 15.5 4.5t22.5 2.5q22 0 33 -8.5t11 -28.5v-325z" />
    <glyph glyph-name="V" unicode="V" horiz-adv-x="583" 
d="M347 8v0q-5 -4 -19 -8.5t-31 -4.5q-19 0 -34 5.5t-20 16.5q-16 31 -37.5 83t-46 116.5t-48.5 132t-44.5 131t-35.5 112.5q6 8 18 15t27 7q19 0 28 -9t15 -27q44 -130 85.5 -253t90.5 -248h4q29 76 60.5 164.5t61 182.5t52.5 183q7 4 15.5 5.5t18.5 1.5q18 0 29 -9t11 -27
q0 -15 -11 -56t-29.5 -97t-40.5 -118t-45 -121.5t-42 -106t-32 -71.5z" />
    <glyph glyph-name="W" unicode="W" horiz-adv-x="803" 
d="M359 457v0q8 4 20 7t25 3q20 0 33.5 -6.5t17.5 -19.5q25 -72 45.5 -133.5t39 -119t37.5 -118.5h4q19 90 37 175.5t35 173.5t31 188q14 7 34 7q19 0 30 -8.5t11 -25.5q0 -19 -5.5 -57.5t-15 -90t-22 -109t-26.5 -115t-28 -108.5t-27 -89q-9 -5 -23 -9.5t-32 -4.5
q-22 0 -37 7t-20 19q-14 35 -34 92.5t-41.5 126t-41.5 135.5q-19 -66 -41 -137t-42.5 -132t-36.5 -98q-7 -4 -21.5 -8.5t-32.5 -4.5q-22 0 -36.5 7.5t-19.5 18.5q-10 25 -24.5 75t-30.5 114.5t-31.5 134t-29 134t-21.5 114.5q7 7 19 13t26 6q18 0 28 -8.5t14 -28.5
q13 -63 25 -122t24.5 -119t26.5 -125.5t31 -140.5h4q14 45 27 86t27 84.5t30.5 95.5t37.5 121z" />
    <glyph glyph-name="X" unicode="X" horiz-adv-x="591" 
d="M268 289l-14 6l-205 279q5 17 17 28.5t31 11.5q16 0 27 -9.5t23 -26.5l164 -235l23 -20l210 -291q-4 -17 -15.5 -28t-30.5 -11q-16 0 -26.5 8t-22.5 26zM336 301l-22 -20l-205 -286q-4 -1 -9.5 -1.5t-10.5 -0.5q-20 0 -32 10t-12 26q0 13 6.5 24.5t16.5 24.5l187 245
l27 25l190 263q5 1 10 1.5t11 0.5q21 0 31.5 -10t10.5 -25q0 -10 -5.5 -21t-13.5 -22q-43 -58 -88 -116.5t-92 -117.5z" />
    <glyph glyph-name="Y" unicode="Y" horiz-adv-x="550" 
d="M314 218h-71q-28 42 -58.5 88.5t-60 94.5t-56 94.5t-47.5 86.5q4 11 15 21.5t29 10.5q19 0 29.5 -10t21.5 -30q13 -23 29.5 -51.5t34.5 -60t36 -62.5t33.5 -58t27.5 -47h4q35 58 64 110t56 102t53 100q6 4 15 5.5t16 1.5q19 0 28.5 -9t9.5 -25q0 -10 -15.5 -42.5
t-43.5 -81t-66 -109.5t-84 -129zM238 257h81v-255q-5 -2 -15.5 -4.5t-21.5 -2.5q-22 0 -33 9t-11 28v225z" />
    <glyph glyph-name="Z" unicode="Z" horiz-adv-x="557" 
d="M71 88l380 520h32q19 -16 19 -38q0 -14 -5.5 -25t-15.5 -25l-379 -520h-33q-8 7 -13.5 17t-5.5 21q0 14 5.5 25.5t15.5 24.5zM90 0l3 69h406q4 -5 7 -13.5t3 -19.5q0 -16 -8.5 -26t-22.5 -10h-388zM464 608l-2 -69h-395q-3 5 -6.5 14t-3.5 19q0 17 8.5 26.5t23.5 9.5h375
z" />
    <glyph glyph-name="bracketleft" unicode="[" horiz-adv-x="268" 
d="M69 -60v657h73v-657h-73zM69 -46h183l4 -14t2 -17q0 -16 -8.5 -24.5t-25.5 -8.5h-114q-20 0 -30.5 11t-10.5 30v23zM110 651h142q2 -6 4 -13t2 -17q0 -16 -8.5 -24.5t-25.5 -8.5h-155v23q0 19 10.5 29.5t30.5 10.5z" />
    <glyph glyph-name="backslash" unicode="\" horiz-adv-x="341" 
d="M110 639l190 -685q-7 -7 -19 -12.5t-23 -5.5q-13 0 -22 6t-13 20l-190 685q8 8 19.5 13t22.5 5q13 0 22 -6t13 -20z" />
    <glyph glyph-name="bracketright" unicode="]" horiz-adv-x="269" 
d="M199 602v-658h-73v658h73zM199 588h-183q-2 6 -4 13.5t-2 16.5q0 17 9 25t26 8h113q20 0 30.5 -10.5t10.5 -29.5v-23zM158 -110h-142q-2 6 -4 13.5t-2 16.5q0 17 9 25.5t26 8.5h154v-23q0 -19 -10.5 -30t-30.5 -11z" />
    <glyph glyph-name="asciicircum" unicode="^" horiz-adv-x="463" 
d="M194 646v0q5 4 15 6.5t21 2.5q30 0 37 -14q14 -25 33.5 -63t40 -81t39 -83.5t29.5 -70.5q-5 -7 -15 -13t-22 -6q-16 0 -25.5 7t-17.5 26l-97 216h-7q-4 -9 -16 -35.5t-28 -62.5t-31.5 -73.5t-26.5 -69.5q-7 -4 -15.5 -6.5t-19.5 -2.5q-13 0 -23.5 7t-10.5 23
q0 9 12.5 38.5t31.5 69t39 79t36 69t21 37.5z" />
    <glyph glyph-name="underscore" unicode="_" horiz-adv-x="465" 
d="M430 -123h-424q-2 6 -4 13.5t-2 17.5q0 17 9 25.5t26 8.5h423q2 -6 4.5 -14t2.5 -17q0 -16 -9 -25t-26 -9z" />
    <glyph glyph-name="grave" unicode="`" horiz-adv-x="243" 
d="M136 534l-94 100q-1 4 -1.5 7.5t-0.5 5.5q0 16 11 26t27 10q11 0 19.5 -4.5t15.5 -12.5l90 -113q-1 -16 -10 -25.5t-23 -9.5q-11 0 -18.5 4.5t-15.5 11.5z" />
    <glyph glyph-name="a" unicode="a" horiz-adv-x="499" 
d="M240 52v0q42 0 69.5 8.5t39.5 16.5v145l-124 -13q-52 -4 -77 -23t-25 -55q0 -37 29.5 -58t87.5 -21zM239 475v0q87 0 138 -39t51 -123v-237q0 -22 -8.5 -33.5t-25.5 -21.5q-24 -13 -64 -24t-90 -11q-94 0 -145.5 37t-51.5 107q0 65 43.5 99.5t120.5 41.5l142 14v28
q0 50 -30 73t-81 23q-41 0 -78.5 -12t-66.5 -27q-8 7 -14.5 16.5t-6.5 19.5q0 26 29 40q27 14 62.5 21.5t75.5 7.5z" />
    <glyph glyph-name="b" unicode="b" horiz-adv-x="549" 
d="M281 475v0q62 0 111.5 -26.5t78 -80.5t28.5 -137q0 -84 -29.5 -138t-81.5 -80t-121 -26q-49 0 -88.5 12t-64.5 26q-21 14 -29 26t-8 33v333h80v-333q15 -11 44 -21t66 -10q68 0 109.5 43t41.5 135q0 93 -42 135.5t-107 42.5q-40 0 -71 -15.5t-51 -35.5l-15 65
q22 17 59 34.5t90 17.5zM157 401h-80v247q5 2 15.5 4.5t22.5 2.5q21 0 31.5 -8.5t10.5 -27.5v-218z" />
    <glyph glyph-name="c" unicode="c" horiz-adv-x="478" 
d="M289 408v0q-68 0 -113 -46t-45 -132q0 -85 43.5 -131t114.5 -46q42 0 70 11.5t50 26.5q11 -6 18 -15t7 -22q0 -28 -41.5 -47.5t-103.5 -19.5q-69 0 -123.5 26.5t-85.5 80.5t-31 136q0 81 32 135.5t86.5 82t119.5 27.5q62 0 102.5 -21t40.5 -48q0 -12 -7 -21t-18 -14
q-22 15 -48.5 26t-67.5 11z" />
    <glyph glyph-name="d" unicode="d" horiz-adv-x="547" 
d="M390 79v336l80 1v-340q0 -19 -8.5 -30.5t-26.5 -22.5q-20 -13 -54 -24.5t-82 -11.5q-72 0 -128.5 25t-89 78.5t-32.5 138.5q0 87 30.5 141t82.5 79.5t114 25.5q39 0 74 -11t55 -27v-74q-19 19 -49.5 32.5t-71.5 13.5t-76 -17.5t-56 -57.5t-21 -107q0 -91 44 -132.5
t117 -41.5q35 0 57.5 7.5t40.5 18.5zM470 396l-80 -1v253q5 2 15.5 4.5t21.5 2.5q22 0 32.5 -8.5t10.5 -27.5v-223z" />
    <glyph glyph-name="e" unicode="e" horiz-adv-x="519" 
d="M104 180l-4 63l302 41q-4 55 -38 90.5t-94 35.5q-62 0 -102.5 -44.5t-40.5 -127.5v-22q7 -80 52.5 -121.5t124.5 -41.5q42 0 76 14t54 30q11 -7 17.5 -16.5t6.5 -21.5q0 -19 -21.5 -35.5t-57 -26.5t-79.5 -10q-77 0 -133.5 28t-87 83.5t-30.5 135.5q0 57 16.5 101.5
t46 75.5t70.5 47.5t89 16.5q61 0 107.5 -26t73 -72.5t26.5 -106.5q0 -22 -10 -31.5t-28 -11.5z" />
    <glyph glyph-name="f" unicode="f" horiz-adv-x="399" 
d="M142 371v65h212q3 -4 6 -12.5t3 -19.5q0 -16 -8 -24.5t-23 -8.5h-190zM156 499v-117h-79v121q0 59 21.5 95.5t62 54t96.5 17.5q57 0 89.5 -15t32.5 -37q0 -11 -4.5 -20t-12.5 -17q-18 10 -45 16.5t-52 6.5q-61 0 -85 -25t-24 -80zM77 426h80v-424q-5 -2 -15 -4.5
t-22 -2.5q-21 0 -32 8.5t-11 27.5v395z" />
    <glyph glyph-name="g" unicode="g" horiz-adv-x="537" 
d="M267 14v0q-58 0 -107 22.5t-79 73.5t-30 135q0 76 29.5 127t81.5 77t119 26q46 0 84.5 -11.5t64.5 -28.5q15 -10 24.5 -22.5t9.5 -30.5v-309h-80v308q-17 11 -42.5 19.5t-60.5 8.5q-67 0 -108 -41t-41 -122q0 -90 41.5 -128t102.5 -38q44 0 71 15t43 33l4 -71
q-15 -16 -47.5 -29.5t-79.5 -13.5zM384 -15v105h80v-110q0 -66 -28.5 -106t-78 -58t-111.5 -18q-50 0 -86 11t-49 18q-30 17 -30 43q0 14 6.5 23.5t16.5 14.5q21 -16 59.5 -29.5t82.5 -13.5q67 0 102.5 29t35.5 91z" />
    <glyph glyph-name="h" unicode="h" horiz-adv-x="551" 
d="M476 199h-80v92q0 60 -33.5 89t-86.5 29q-39 0 -72.5 -15t-56.5 -36l-15 65q24 17 63.5 34.5t91.5 17.5q83 0 136 -45t53 -137v-94zM77 264h80v-262q-5 -2 -15 -4.5t-22 -2.5q-21 0 -32 8.5t-11 27.5v233zM396 263l80 -1v-260q-5 -2 -15.5 -4.5t-21.5 -2.5
q-22 0 -32.5 8.5t-10.5 27.5v232zM157 225h-80v423q5 2 15.5 4.5t22.5 2.5q21 0 31.5 -8.5t10.5 -27.5v-394z" />
    <glyph glyph-name="i" unicode="i" horiz-adv-x="241" 
d="M68 608v0q0 21 15 35.5t37 14.5q23 0 37 -14.5t14 -35.5t-14 -35.5t-37 -14.5q-22 0 -37 14.5t-15 35.5zM80 264h80v-262q-5 -2 -15 -4.5t-22 -2.5q-21 0 -32 8.5t-11 27.5v233zM160 225h-80v235q5 2 15.5 4.5t22.5 2.5q21 0 31.5 -8.5t10.5 -28.5v-205z" />
    <glyph glyph-name="j" unicode="j" horiz-adv-x="243" 
d="M6 -146v0q24 11 41 23t26.5 33.5t9.5 59.5v333h80v-348q0 -58 -20 -90.5t-46 -46t-45 -13.5q-25 0 -34.5 14.5t-11.5 34.5zM71 608v0q0 21 15 35.5t37 14.5q23 0 37 -14.5t14 -35.5t-14 -35.5t-37 -14.5q-22 0 -37 14.5t-15 35.5zM163 214l-80 11v235q5 2 15.5 4.5
t22.5 2.5q21 0 31.5 -8.5t10.5 -28.5v-216z" />
    <glyph glyph-name="k" unicode="k" horiz-adv-x="487" 
d="M198 211l-50 39l228 221q24 -1 37.5 -11.5t13.5 -27.5q0 -14 -8.5 -25t-24.5 -24zM146 237l56 33l254 -228q-2 -22 -13.5 -35t-30.5 -13q-15 0 -27.5 8t-25.5 21zM77 268l80 -12v-254q-5 -2 -15 -4.5t-22 -2.5q-21 0 -32 8.5t-11 27.5v237zM157 217l-80 12v419
q5 2 15.5 4.5t22.5 2.5q21 0 31.5 -8.5t10.5 -27.5v-402z" />
    <glyph glyph-name="l" unicode="l" horiz-adv-x="246" 
d="M83 264l80 -12v-250q-5 -2 -15 -4.5t-22 -2.5q-21 0 -32 8.5t-11 27.5v233zM163 214l-80 11v423q5 2 15.5 4.5t21.5 2.5q22 0 32.5 -8.5t10.5 -27.5v-405z" />
    <glyph glyph-name="m" unicode="m" horiz-adv-x="816" 
d="M448 320v-115h-80v109q0 49 -28.5 72t-75.5 23q-31 0 -60 -10t-49 -23v-171h-80v167q0 20 8.5 34t29.5 27q27 17 68.5 29.5t83.5 12.5q51 0 90 -15.5t58 -42.5q6 -6 10 -11t8 -13q7 -12 12 -31t5 -42zM741 318v-113h-80v109q0 49 -28 72t-75 23q-35 0 -67.5 -14.5
t-58.5 -41.5l-32 58q26 26 68 45t96 19t93.5 -17t61.5 -52t22 -88zM75 258h80v-256q-5 -2 -15 -4.5t-22 -2.5q-21 0 -32 8.5t-11 27.5v227zM368 258h80v-256q-5 -2 -15.5 -4.5t-21.5 -2.5q-22 0 -32.5 8.5t-10.5 27.5v227zM661 258h80v-256q-5 -2 -15.5 -4.5t-21.5 -2.5
q-22 0 -32.5 8.5t-10.5 27.5v227z" />
    <glyph glyph-name="n" unicode="n" horiz-adv-x="550" 
d="M475 305v-102h-80v98q0 56 -31.5 82t-84.5 26q-40 0 -71 -10t-53 -23v-173h-80v169q0 21 8.5 34.5t29.5 26.5q26 15 69 28.5t97 13.5q91 0 143.5 -41.5t52.5 -128.5zM75 258h80v-256q-5 -2 -15 -4.5t-22 -2.5q-21 0 -32 8.5t-11 27.5v227zM395 258h80v-256
q-5 -2 -15.5 -4.5t-21.5 -2.5q-22 0 -32.5 8.5t-10.5 27.5v227z" />
    <glyph glyph-name="o" unicode="o" horiz-adv-x="553" 
d="M504 231v0q0 -74 -28 -129t-79 -85t-120 -30t-120.5 30t-79.5 85t-28 129q0 75 28.5 129.5t80 84.5t119.5 30t119 -30t79.5 -84.5t28.5 -129.5zM277 409v0q-67 0 -106.5 -47.5t-39.5 -130.5q0 -84 38.5 -131t107.5 -47q68 0 106.5 47.5t38.5 130.5t-38.5 130.5
t-106.5 47.5z" />
    <glyph glyph-name="p" unicode="p" horiz-adv-x="546" 
d="M272 -13v0q66 0 117 27t79.5 81.5t28.5 136.5q0 85 -31.5 138.5t-85 79t-119.5 25.5q-48 0 -85.5 -12.5t-64.5 -27.5q-22 -13 -29 -25t-7 -32v-330h80v332q20 11 45 20t61 9q41 0 76.5 -17t57 -55.5t21.5 -104.5q0 -94 -42.5 -136.5t-112.5 -42.5q-43 0 -73.5 14.5
t-50.5 33.5v-74q17 -15 54.5 -27.5t80.5 -12.5zM155 75l-80 2v-227q0 -19 11 -28t32 -9q12 0 22 2.5t15 4.5v255z" />
    <glyph glyph-name="q" unicode="q" horiz-adv-x="546" 
d="M471 63l-80 1v317q-17 11 -42.5 19.5t-60.5 8.5q-43 0 -78.5 -18t-57 -58t-21.5 -105q0 -92 43 -133.5t113 -41.5q36 0 66 12.5t47 29.5v-73q-20 -14 -50.5 -24.5t-74.5 -10.5q-65 0 -116.5 25t-80.5 78.5t-29 137.5t31.5 139t85 81.5t120.5 26.5q48 0 87 -12t65 -28
q15 -9 24 -22t9 -31v-319zM391 78l80 2v-263q-5 -2 -15.5 -4.5t-21.5 -2.5q-22 0 -32.5 9t-10.5 28v231z" />
    <glyph glyph-name="r" unicode="r" horiz-adv-x="382" 
d="M155 376v-158h-80v152q0 23 8.5 36.5t28.5 26.5q26 17 71 29.5t100 12.5q80 0 80 -40q0 -10 -3 -18.5t-8 -14.5q-10 2 -26 4t-32 2q-46 0 -81 -9.5t-58 -22.5zM75 264l80 -12v-250q-5 -2 -15 -4.5t-22 -2.5q-21 0 -32 8.5t-11 27.5v233z" />
    <glyph glyph-name="s" unicode="s" horiz-adv-x="447" 
d="M401 123v0q0 -64 -47 -100t-136 -36q-76 0 -124 23.5t-48 51.5q0 12 6.5 23.5t19.5 18.5q27 -19 63 -35t82 -16q104 0 104 70q0 29 -17.5 47.5t-51.5 26.5l-83 22q-61 15 -89 46.5t-28 78.5q0 53 43 92t131 39q47 0 82 -9.5t54.5 -25t19.5 -33.5q0 -13 -6.5 -23
t-17.5 -15q-12 8 -30.5 17.5t-43.5 16t-55 6.5q-44 0 -71 -17t-27 -48q0 -22 15.5 -38.5t49.5 -24.5l69 -17q68 -16 102 -50.5t34 -90.5z" />
    <glyph glyph-name="t" unicode="t" horiz-adv-x="372" 
d="M76 264h80v-138q0 -40 23 -56.5t63 -16.5q17 0 38 6t35 14q6 -6 11 -15t5 -21q0 -22 -26 -36t-72 -14q-70 0 -113.5 31t-43.5 103v143zM117 386v66h203q3 -4 6 -13t3 -19q0 -16 -8 -25t-22 -9h-182zM156 234h-80v362q5 2 15.5 4.5t22.5 2.5q21 0 31.5 -8.5t10.5 -27.5
v-333z" />
    <glyph glyph-name="u" unicode="u" horiz-adv-x="550" 
d="M75 169v91h80v-87q0 -64 34 -92t94 -28q40 0 68 8.5t44 17.5v181h80v-178q0 -21 -5.5 -33.5t-26.5 -24.5q-22 -13 -63 -25t-98 -12q-66 0 -112.5 19.5t-70.5 60t-24 102.5zM475 208h-80v252q5 2 15.5 4.5t21.5 2.5q22 0 32.5 -8.5t10.5 -28.5v-222zM155 208h-80v252
q5 2 15.5 4.5t22.5 2.5q21 0 31.5 -8.5t10.5 -28.5v-222z" />
    <glyph glyph-name="v" unicode="v" horiz-adv-x="495" 
d="M421 471v0q17 0 27.5 -9t10.5 -26q0 -13 -11 -49t-29 -86t-39.5 -104.5t-44 -105t-41.5 -87.5q-5 -4 -17.5 -7t-26.5 -3q-17 0 -30 5.5t-18 15.5q-11 20 -28.5 58.5t-37.5 87.5t-40.5 101.5t-37.5 101t-28 85.5q7 10 19 16t24 6q18 0 28 -9t17 -30l62 -179q8 -23 21 -57
l26 -68t21 -57h4q40 101 75 199.5t60 192.5q13 8 34 8z" />
    <glyph glyph-name="w" unicode="w" horiz-adv-x="729" 
d="M366 344v0q-18 -63 -38.5 -126t-39.5 -118t-35 -95q-8 -5 -18 -8t-27 -3q-16 0 -29.5 5.5t-18.5 17.5q-10 20 -22.5 58t-26 87t-27.5 101.5t-25.5 101.5t-19.5 87q7 7 17.5 13t25.5 6q19 0 28.5 -10.5t13.5 -33.5q9 -42 20.5 -95t24 -105t23 -93.5t15.5 -61.5h4
q8 24 25 78.5t40.5 124.5t47.5 142q8 5 19 7.5t24 2.5q18 0 30 -6.5t16 -19.5q24 -69 45 -135.5t37 -118t23 -76.5h5q23 89 50 191t44 200q14 9 34 9q17 0 27 -8t10 -25q0 -11 -6.5 -42t-17.5 -73t-24.5 -89.5t-27.5 -92t-26.5 -80.5t-21.5 -56q-5 -4 -16.5 -7.5t-26.5 -3.5
q-41 0 -48 19q-14 36 -32 89.5t-37 116t-38 125.5z" />
    <glyph glyph-name="x" unicode="x" horiz-adv-x="482" 
d="M214 261l15 7q41 53 77 99t74 101q4 1 6 1h5q21 0 33 -9.5t12 -25.5q0 -11 -4.5 -21t-14.5 -23q-34 -42 -69.5 -85t-69.5 -84l-26 -22q-37 -49 -76 -101.5t-75 -102.5h-6.5h-7.5q-23 0 -34.5 10t-11.5 25q0 8 3.5 17t16.5 25q36 48 76 94.5t77 94.5zM263 259l18 -12
q41 -54 82.5 -106.5t82.5 -105.5q-2 -19 -13 -30t-29 -11q-16 0 -27 8.5t-25 26.5q-30 42 -63.5 89t-63.5 88l-23 21q-44 53 -82 101t-78 99q4 20 15 31t27 11q17 0 27 -8.5t20 -22.5q30 -40 63 -87.5t69 -91.5z" />
    <glyph glyph-name="y" unicode="y" horiz-adv-x="489" 
d="M169 103v0q-17 32 -41 86.5t-49.5 122t-48.5 137.5q7 10 18.5 16t24.5 6q17 0 28 -9t18 -30q30 -84 63 -167t73 -172h4q21 42 44 105t44 133t35 132q7 3 15.5 5.5t18.5 2.5q17 0 28 -8.5t11 -25.5q0 -16 -9 -53.5t-24.5 -87t-36 -105t-44 -109t-47.5 -96.5
q-46 -85 -84 -130.5t-70 -45.5q-23 0 -35.5 12t-15.5 28q22 19 49.5 50.5t53 68t41.5 69.5q-17 5 -31.5 18t-32.5 47z" />
    <glyph glyph-name="z" unicode="z" horiz-adv-x="469" 
d="M93 0h-32q-7 6 -11.5 15.5t-4.5 19.5q0 12 5.5 22.5t12.5 20.5l307 384h31q8 -7 12.5 -16t4.5 -20t-5.5 -21t-13.5 -21zM390 462v-66h-330q-3 5 -6 14t-3 19q0 17 8 25t22 8h309zM67 0v65h349q3 -4 6 -12.5t3 -19.5q0 -16 -8 -24.5t-23 -8.5h-327z" />
    <glyph glyph-name="braceleft" unicode="{" horiz-adv-x="281" 
d="M122 275v0q33 -17 51.5 -51.5t18.5 -87.5v-131q0 -35 13.5 -49.5t42.5 -15.5q2 -6 2.5 -11.5t0.5 -11.5q0 -14 -9 -23t-27 -9q-42 0 -68.5 30t-26.5 90v123q0 53 -19 81.5t-57 34.5q-4 5 -5.5 14.5t-1.5 16.5t2 16t5 15q38 6 57 34.5t19 80.5v116q0 60 26.5 89.5
t68.5 29.5q18 0 27 -8.5t9 -23.5q0 -6 -0.5 -11.5t-2.5 -11.5q-29 0 -42.5 -14.5t-13.5 -50.5v-122q0 -53 -18.5 -87.5t-51.5 -51.5z" />
    <glyph glyph-name="bar" unicode="|" horiz-adv-x="251" 
d="M162 641v-821q-7 -3 -15.5 -5t-19.5 -2q-19 0 -28.5 9t-9.5 31v821q8 3 16 5t19 2q20 0 29 -9t9 -31z" />
    <glyph glyph-name="braceright" unicode="}" horiz-adv-x="281" 
d="M159 275q-33 17 -51.5 51.5t-18.5 87.5v122q0 36 -13.5 50.5t-42.5 14.5q-1 6 -2 11.5t-1 11.5q0 15 9 23.5t27 8.5q42 0 68.5 -29.5t26.5 -89.5v-116q0 -52 19 -80.5t57 -34.5q3 -6 5 -15t2 -16t-1.5 -16.5t-5.5 -14.5q-38 -6 -57 -34.5t-19 -81.5v-123q0 -60 -26.5 -90
t-68.5 -30q-18 0 -27 9t-9 23q0 6 1 11.5t2 11.5q29 1 42.5 15.5t13.5 49.5v131q0 53 18.5 87.5t51.5 51.5v0z" />
    <glyph glyph-name="asciitilde" unicode="~" horiz-adv-x="448" 
d="M312 282v0q27 0 38.5 14.5t19.5 30.5q22 0 37.5 -12t15.5 -32q0 -31 -26 -50.5t-68 -19.5q-40 0 -74 10.5t-63 20.5t-56 10t-38.5 -14.5t-19.5 -30.5q-22 0 -37.5 12t-15.5 32q0 21 12 37t33.5 24.5t48.5 8.5q41 0 75 -10t63 -20.5t55 -10.5z" />
    <glyph glyph-name="exclamdown" unicode="&#xa1;" horiz-adv-x="250" 
d="M86 -126v0q0 30 0.5 78.5t2 105t3.5 112t4 99.5q6 5 14.5 7.5t18.5 2.5q14 0 23 -6t10 -19q2 -29 4 -80t3 -111.5t1.5 -118.5t0.5 -100q-21 -13 -45 -13q-19 0 -29.5 10.5t-10.5 32.5zM184 411v0q0 -24 -15 -40t-41 -16t-41 16t-15 40t15 40t41 16t41 -16t15 -40z" />
    <glyph glyph-name="cent" unicode="&#xa2;" horiz-adv-x="476" 
d="M233 28h73v-136q-4 -1 -13 -3t-19 -2q-19 0 -30 8.5t-11 24.5v108zM306 422h-73v149q5 2 14 3.5t19 1.5q20 0 30 -8.5t10 -24.5v-121zM289 408v0q-68 0 -113 -46t-45 -132q0 -85 43.5 -131t114.5 -46q42 0 70 11.5t50 26.5q11 -6 18 -15t7 -22q0 -28 -41.5 -47.5
t-104.5 -19.5q-69 0 -123 26.5t-85 80.5t-31 136q0 81 32 135.5t86.5 82t119.5 27.5q62 0 102.5 -21t40.5 -48q0 -12 -7.5 -21t-18.5 -14q-21 15 -47.5 26t-67.5 11z" />
    <glyph glyph-name="sterling" unicode="&#xa3;" horiz-adv-x="504" 
d="M384 263h-299q-11 0 -19.5 7.5t-8.5 25.5q0 10 3 17.5t5 14.5h340q3 -7 5.5 -14.5t2.5 -17.5q0 -18 -8 -25.5t-21 -7.5zM145 219v0q0 23 -3.5 59t-7.5 74.5t-4 65.5q0 72 27.5 116.5t73.5 65.5t101 21q65 0 96 -20.5t31 -40.5q0 -8 -5.5 -19.5t-17.5 -18.5
q-22 15 -44.5 23t-54.5 8q-64 0 -95.5 -36t-31.5 -110q0 -26 3.5 -63t6.5 -71.5t3 -55.5q0 -53 -14 -90t-41 -61h293q4 -7 6 -14.5t2 -18.5q0 -16 -8 -24.5t-21 -8.5h-340q-19 0 -32.5 11.5t-13.5 33.5q0 9 1 15q45 23 67.5 56t22.5 103z" />
    <glyph glyph-name="currency" unicode="&#xa4;" horiz-adv-x="525" 
d="M145 382l61 38l-54 65q-10 12 -21 23t-24 11t-26 -9t-21 -27zM373 298v0q0 -58 -30.5 -89t-80.5 -31t-81 31t-31 89q0 57 31 88.5t81 31.5t80.5 -31.5t30.5 -88.5zM326 423l52 -51l52 64q11 13 17.5 24.5t6.5 24.5q0 18 -14 28t-33 14zM447 298v0q0 59 -25 99.5t-67 61.5
t-93 21t-93 -21t-67 -61.5t-25 -99.5q0 -60 25 -100.5t67 -61.5t93 -21t93 21t67 61.5t25 100.5zM380 210l-60 -39l53 -64q10 -13 21.5 -24t23.5 -11q14 0 26.5 9t20.5 28zM202 168l-52 51l-53 -64q-10 -12 -17 -24t-7 -24q0 -18 14.5 -28.5t33.5 -14.5z" />
    <glyph glyph-name="yen" unicode="&#xa5;" horiz-adv-x="546" 
d="M345 319l-140 4q-31 46 -63 95t-59 94t-46 80q7 9 18 17.5t26 8.5q17 0 27.5 -9.5t21.5 -30.5l143 -233h5q32 50 55 90t46 81t53 94q9 5 16.5 6.5t17.5 1.5q18 0 26.5 -9.5t8.5 -22.5q0 -9 -13.5 -35.5t-36.5 -64.5t-50.5 -81.5t-55.5 -85.5zM234 193h82v-192
q-5 -1 -15.5 -3.5t-21.5 -2.5q-22 0 -33.5 9t-11.5 27v162zM244 280l20 62h225q3 -7 5.5 -15t2.5 -17q0 -14 -7 -22t-18 -8h-228zM291 342l16 -62h-248q-4 5 -7 13.5t-3 18.5q0 17 7.5 23.5t17.5 6.5h217zM471 148h-412q-4 5 -7 13.5t-3 18.5q0 18 7.5 24t16.5 6h414
q3 -5 5.5 -14.5t2.5 -17.5q0 -14 -7 -22t-17 -8z" />
    <glyph glyph-name="brokenbar" unicode="&#xa6;" horiz-adv-x="293" 
d="M162 642v-332q-7 -3 -15.5 -5t-19.5 -2q-19 0 -28.5 9t-9.5 31v332q8 3 16 5t19 2q20 0 29 -9t9 -31zM162 152v-332q-7 -3 -15.5 -5t-19.5 -2q-19 0 -28.5 9t-9.5 31v332q8 3 16 5t19 2q20 0 29 -9t9 -31z" />
    <glyph glyph-name="section" unicode="&#xa7;" horiz-adv-x="504" 
d="M444 85v0q0 -61 -50 -95.5t-146 -34.5q-54 0 -96.5 10.5t-67 28t-24.5 36.5q0 14 7 24t18 17q34 -21 74 -36t89 -15q56 0 86.5 16.5t30.5 48.5q0 27 -19.5 40.5t-63.5 23.5l-91 20q-54 11 -91 40.5t-37 88.5q0 47 27.5 76t63.5 42l58 -30q-30 -11 -50.5 -32t-20.5 -54
q0 -28 20 -44.5t54 -23.5l92 -20q62 -13 99.5 -41t37.5 -86zM444 283v0q0 -34 -15 -59t-38.5 -41.5t-47.5 -25.5l-51 38q32 11 52.5 32t20.5 55q0 29 -20 44.5t-64 25.5l-90 18q-34 8 -62.5 21.5t-45 38t-16.5 64.5q0 61 47 94t131 33q49 0 87 -9t60 -23.5t22 -33.5
q0 -13 -6.5 -22.5t-14.5 -14.5q-18 9 -40.5 18t-49 14.5t-56.5 5.5q-47 0 -74 -15.5t-27 -46.5q0 -28 18.5 -41t51.5 -20l90 -18q62 -16 100 -44t38 -88z" />
    <glyph glyph-name="dieresis" unicode="&#xa8;" horiz-adv-x="351" 
d="M122 606v0q0 -19 -14 -33.5t-36 -14.5q-21 0 -34.5 14.5t-13.5 33.5q0 20 13.5 34t34.5 14q22 0 36 -14t14 -34zM295 606v0q0 -19 -14.5 -33.5t-35.5 -14.5q-20 0 -34.5 14.5t-14.5 33.5q0 20 14.5 34t34.5 14q21 0 35.5 -14t14.5 -34z" />
    <glyph glyph-name="copyright" unicode="&#xa9;" horiz-adv-x="713" 
d="M54 298v0q0 87 38 157.5t105.5 112t157.5 41.5t158.5 -41.5t107 -112t38.5 -157.5q0 -84 -38.5 -152t-107 -108t-158.5 -40t-157.5 40t-105.5 108t-38 152zM355 555v0q-74 0 -128 -33t-82.5 -90.5t-28.5 -133.5q0 -72 28.5 -127.5t82.5 -87t128 -31.5q75 0 128.5 31.5
t82 87t28.5 127.5q0 76 -28.5 133.5t-82 90.5t-128.5 33zM377 420v0q-42 0 -75 -27.5t-33 -89.5q0 -57 31.5 -86.5t79.5 -29.5q28 0 44 7t29 15q20 -11 20 -32q0 -16 -24.5 -32.5t-73.5 -16.5t-89 20t-64 59t-24 96q0 62 25.5 101t64.5 57.5t79 18.5q44 0 73 -15.5t29 -39.5
q0 -7 -6.5 -15t-14.5 -12q-14 8 -31 15t-40 7z" />
    <glyph glyph-name="ordfeminine" unicode="&#xaa;" horiz-adv-x="352" 
d="M174 358v0q21 0 39 4.5t27 9.5v80l-68 -7q-36 -4 -52 -13.5t-16 -27.5q0 -22 17 -34t53 -12zM171 620v0q56 0 93 -23t37 -87v-155q0 -9 -6.5 -16t-17.5 -13q-44 -21 -103 -21q-61 0 -96.5 23.5t-35.5 71.5q0 44 30 67t87 28l81 8v7q0 33 -17.5 45t-55.5 12q-25 0 -51 -8
t-43 -19q-7 4 -12.5 12t-5.5 18q0 11 5.5 17.5t15.5 12.5q15 8 41.5 14t53.5 6z" />
    <glyph glyph-name="logicalnot" unicode="&#xac;" horiz-adv-x="542" 
d="M86 383h366q17 0 27.5 -9.5t10.5 -27.5v-164q-7 -3 -16 -5t-20 -2q-20 0 -29.5 9t-9.5 31v103h-357q-3 6 -5 14t-2 17q0 17 9.5 25.5t25.5 8.5z" />
    <glyph glyph-name="registered" unicode="&#xae;" horiz-adv-x="619" 
d="M58 377v0q0 68 31.5 124t88 90t131.5 34q74 0 131 -34t89 -90t32 -124t-32 -124.5t-89 -90t-131 -33.5q-75 0 -131.5 33.5t-88 90t-31.5 124.5zM113 377v0q0 -57 24.5 -102t68.5 -71t103 -26t103 26t68.5 71t24.5 102t-24.5 102t-68.5 71t-103 26t-103 -26t-68.5 -71
t-24.5 -102zM305 350h-26v-80q-4 -1 -11 -1.5t-15 -0.5q-12 0 -19 4t-7 19v185q0 14 22 18q14 3 26 4t26 1q48 0 75 -19.5t27 -55.5q0 -25 -14.5 -42.5t-35.5 -24.5l57 -70q-2 -8 -10 -14t-19 -6q-10 0 -17.5 5t-15.5 15zM279 391h32q38 0 38 35q0 15 -12 23.5t-32 8.5
q-7 0 -13.5 -0.5t-12.5 -1.5v-65z" />
    <glyph glyph-name="macron" unicode="&#xaf;" horiz-adv-x="328" 
d="M278 570h-227q-4 6 -7.5 14t-3.5 18q0 17 9 25t23 8h228q4 -6 7 -14.5t3 -17.5q0 -17 -8.5 -25t-23.5 -8z" />
    <glyph glyph-name="degree" unicode="&#xb0;" horiz-adv-x="360" 
d="M321 489v0q0 -40 -19 -69.5t-51 -45.5t-70 -16q-62 0 -102 37.5t-40 93.5q0 40 19.5 69.5t51.5 45.5t70 16t70 -16t51.5 -45t19.5 -70zM180 561v0q-27 0 -49 -18.5t-22 -53.5t21.5 -54t49.5 -19q29 0 50 19t21 54t-22 53.5t-49 18.5z" />
    <glyph glyph-name="plusminus" unicode="&#xb1;" horiz-adv-x="548" 
d="M446 318h-374q-2 6 -4 14t-2 17q0 17 9.5 25.5t25.5 8.5h374q2 -6 4 -13.5t2 -17.5q0 -16 -9 -25t-26 -9zM446 0h-374q-2 6 -4 14t-2 17q0 17 9.5 25.5t25.5 8.5h374q2 -6 4 -13.5t2 -17.5q0 -16 -9 -25t-26 -9zM312 514v-364q-7 -2 -15 -4.5t-19 -2.5q-20 0 -29.5 9.5
t-9.5 31.5v363q8 3 16.5 5t19.5 2q19 0 28 -9t9 -31z" />
    <glyph glyph-name="uni00B2" unicode="&#xb2;" horiz-adv-x="276" 
d="M123 697v0q53 0 83 -26t30 -73q0 -31 -16.5 -59t-59.5 -63l-70 -56h148q3 -5 4.5 -11t1.5 -14q0 -10 -5.5 -17t-20.5 -7h-182q-6 6 -9.5 14t-3.5 18q0 14 4.5 22.5t11.5 14.5l87 77q24 21 38 41t14 40q0 25 -17 37t-41 12q-19 0 -37 -7t-32 -18q-7 4 -12 10.5t-5 17.5
q0 20 27.5 33.5t61.5 13.5z" />
    <glyph glyph-name="uni00B3" unicode="&#xb3;" horiz-adv-x="272" 
d="M77 559h57q20 0 33 11.5t13 29.5q0 22 -17.5 34.5t-47.5 12.5q-22 0 -41 -7t-31 -15q-7 5 -11.5 12t-4.5 17q0 19 28.5 31t65.5 12q56 0 86.5 -25t30.5 -66q0 -24 -13 -43t-36 -27q24 -8 38.5 -29t14.5 -48q0 -50 -35.5 -73t-86.5 -23q-43 0 -73 14.5t-30 34.5
q0 11 5.5 19t14.5 12q12 -10 31.5 -20t49.5 -10q29 0 47.5 13t18.5 38q0 20 -13.5 33t-36.5 13h-57q-4 5 -6 11.5t-2 13.5q0 16 8 24z" />
    <glyph glyph-name="acute" unicode="&#xb4;" horiz-adv-x="241" 
d="M55 578l97 109q22 -1 35.5 -12.5t13.5 -25.5q0 -13 -6 -22t-20 -22l-91 -89q-19 0 -31.5 10.5t-12.5 23.5q0 9 5 15.5t10 12.5z" />
    <glyph glyph-name="paragraph" unicode="&#xb6;" horiz-adv-x="441" 
d="M213 613h115q20 0 31.5 -7t11.5 -31v-644q-4 -1 -14.5 -3.5t-21.5 -2.5q-21 0 -32.5 8.5t-11.5 28.5v582h-66v-268q0 -12 -13 -20t-42 -8q-37 0 -73 19t-59 58.5t-23 100.5q0 64 28 105t73 61.5t97 20.5z" />
    <glyph glyph-name="periodcentered" unicode="&#xb7;" horiz-adv-x="141" 
d="M16 252v0q0 24 14.5 40t40.5 16t40 -16t14 -40q0 -23 -14 -39t-40 -16t-40.5 16t-14.5 39z" />
    <glyph glyph-name="cedilla" unicode="&#xb8;" horiz-adv-x="195" 
d="M98 2l50 15q28 -19 40 -45t12 -57q0 -48 -30 -76t-78 -28q-25 0 -38.5 9.5t-13.5 26.5q0 14 6 24h15q36 0 52.5 15.5t16.5 41.5q0 17 -7.5 37t-24.5 37z" />
    <glyph glyph-name="uni00B9" unicode="&#xb9;" horiz-adv-x="211" 
d="M100 395v233l-61 -29q-8 4 -15.5 12t-7.5 19q0 10 6 17t18 12l74 33h12q16 0 23.5 -8.5t7.5 -24.5v-286q-6 -3 -13 -4.5t-14 -1.5q-14 0 -22 6t-8 22z" />
    <glyph glyph-name="ordmasculine" unicode="&#xba;" horiz-adv-x="378" 
d="M333 462v0q0 -76 -39.5 -116.5t-104.5 -40.5q-64 0 -104.5 40t-40.5 118q0 77 41.5 117t103.5 40q65 0 104.5 -40.5t39.5 -117.5zM189 566v0q-37 0 -59.5 -27t-22.5 -76t22.5 -76t59.5 -27t59 26.5t22 75.5t-21.5 76.5t-59.5 27.5z" />
    <glyph glyph-name="questiondown" unicode="&#xbf;" horiz-adv-x="459" 
d="M246 232l98 24q9 -9 14.5 -20t5.5 -24q0 -14 -8 -23t-28 -14l-69 -18q-66 -17 -101.5 -50.5t-35.5 -87.5q0 -48 34.5 -82.5t107.5 -34.5q40 0 80.5 13t64.5 32q11 -8 17 -19t6 -24q0 -29 -48 -51t-123 -22q-66 0 -116 24t-78 66.5t-28 96.5q0 84 52 136.5t155 77.5z
M355 411v0q0 -24 -15 -40.5t-41 -16.5t-41.5 16.5t-15.5 40.5t15.5 40t41.5 16t41 -16t15 -40z" />
    <glyph glyph-name="Agrave" unicode="&#xc0;" horiz-adv-x="592" 
d="M298 545h-4q-15 -42 -35.5 -100t-42 -119.5t-40.5 -114.5l-5 -15l-15 -45t-19 -56.5t-19 -55t-14 -41.5q-7 -3 -14.5 -4.5t-18.5 -1.5q-16 0 -28.5 8.5t-12.5 27.5q0 9 3 18.5t7 20.5q12 34 29.5 83t38.5 107t44 119t45 119t41 106q8 4 24 8t33 4q20 0 38.5 -6t23.5 -20
q24 -58 51.5 -131.5t55.5 -153t53.5 -154.5t45.5 -136q-7 -9 -18.5 -14.5t-25.5 -5.5q-19 0 -29 8.5t-17 28.5l-55 163l-8 28q-20 61 -41.5 123t-40 115t-30.5 87zM132 162l26 67h279l16 -67h-321zM263 680l-88 88q-1 4 -1 7v5q0 16 9.5 26.5t24.5 10.5q21 0 36 -18l84 -101
q-1 -16 -9.5 -25t-22.5 -9q-10 0 -17.5 4.5t-15.5 11.5z" />
    <glyph glyph-name="Aacute" unicode="&#xc1;" horiz-adv-x="592" 
d="M298 545h-4q-15 -42 -35.5 -100t-42 -119.5t-40.5 -114.5l-5 -15l-15 -45t-19 -56.5t-19 -55t-14 -41.5q-7 -3 -14.5 -4.5t-18.5 -1.5q-16 0 -28.5 8.5t-12.5 27.5q0 9 3 18.5t7 20.5q12 34 29.5 83t38.5 107t44 119t45 119t41 106q8 4 24 8t33 4q20 0 38.5 -6t23.5 -20
q24 -58 51.5 -131.5t55.5 -153t53.5 -154.5t45.5 -136q-7 -9 -18.5 -14.5t-25.5 -5.5q-19 0 -29 8.5t-17 28.5l-55 163l-8 28q-20 61 -41.5 123t-40 115t-30.5 87zM132 162l26 67h279l16 -67h-321zM270 724l91 96q22 -1 33.5 -11.5t11.5 -24.5t-5.5 -23t-19.5 -21l-85 -76
q-19 2 -29.5 10t-10.5 20q0 10 4 17t10 13z" />
    <glyph glyph-name="Acircumflex" unicode="&#xc2;" horiz-adv-x="592" 
d="M298 545h-4q-15 -42 -35.5 -100t-42 -119.5t-40.5 -114.5l-5 -15l-15 -45t-19 -56.5t-19 -55t-14 -41.5q-7 -3 -14.5 -4.5t-18.5 -1.5q-16 0 -28.5 8.5t-12.5 27.5q0 9 3 18.5t7 20.5q12 34 29.5 83t38.5 107t44 119t45 119t41 106q8 4 24 8t33 4q20 0 38.5 -6t23.5 -20
q24 -58 51.5 -131.5t55.5 -153t53.5 -154.5t45.5 -136q-7 -9 -18.5 -14.5t-25.5 -5.5q-19 0 -29 8.5t-17 28.5l-55 163l-8 28q-20 61 -41.5 123t-40 115t-30.5 87zM132 162l26 67h279l16 -67h-321zM296 751v0q-16 -17 -39.5 -41.5t-52.5 -50.5q-17 2 -28 10.5t-11 22.5
q0 12 7.5 21t18.5 20l59 59q22 22 47 22q28 0 50 -26l82 -93q0 -15 -9.5 -24.5t-24.5 -9.5q-11 0 -21 6t-24 22z" />
    <glyph glyph-name="Atilde" unicode="&#xc3;" horiz-adv-x="592" 
d="M298 545h-4q-15 -42 -35.5 -100t-42 -119.5t-40.5 -114.5l-5 -15l-15 -45t-19 -56.5t-19 -55t-14 -41.5q-7 -3 -14.5 -4.5t-18.5 -1.5q-16 0 -28.5 8.5t-12.5 27.5q0 9 3 18.5t7 20.5q12 34 29.5 83t38.5 107t44 119t45 119t41 106q8 4 24 8t33 4q20 0 38.5 -6t23.5 -20
q24 -58 51.5 -131.5t55.5 -153t53.5 -154.5t45.5 -136q-7 -9 -18.5 -14.5t-25.5 -5.5q-19 0 -29 8.5t-17 28.5l-55 163l-8 28q-20 61 -41.5 123t-40 115t-30.5 87zM132 162l26 67h279l16 -67h-321zM223 785v0q28 0 50.5 -8.5t42 -17t36.5 -8.5q18 0 26.5 11t12.5 27h6
q18 0 32 -8.5t14 -29.5q0 -28 -20 -45t-53 -17q-28 0 -52 9t-44 17.5t-36 8.5q-18 0 -26 -11t-12 -28h-6q-18 0 -32 9t-14 29t10.5 33.5t28 21t36.5 7.5z" />
    <glyph glyph-name="Adieresis" unicode="&#xc4;" horiz-adv-x="592" 
d="M298 545h-4q-15 -42 -35.5 -100t-42 -119.5t-40.5 -114.5l-5 -15l-15 -45t-19 -56.5t-19 -55t-14 -41.5q-7 -3 -14.5 -4.5t-18.5 -1.5q-16 0 -28.5 8.5t-12.5 27.5q0 9 3 18.5t7 20.5q12 34 29.5 83t38.5 107t44 119t45 119t41 106q8 4 24 8t33 4q20 0 38.5 -6t23.5 -20
q24 -58 51.5 -131.5t55.5 -153t53.5 -154.5t45.5 -136q-7 -9 -18.5 -14.5t-25.5 -5.5q-19 0 -29 8.5t-17 28.5l-55 163l-8 28q-20 61 -41.5 123t-40 115t-30.5 87zM132 162l26 67h279l16 -67h-321zM258 738v0q0 -19 -14 -33.5t-36 -14.5q-21 0 -34.5 14.5t-13.5 33.5
q0 20 13.5 34t34.5 14q22 0 36 -14t14 -34zM431 738v0q0 -19 -14.5 -33.5t-35.5 -14.5q-20 0 -34.5 14.5t-14.5 33.5q0 20 14.5 34t34.5 14q21 0 35.5 -14t14.5 -34z" />
    <glyph glyph-name="Aring" unicode="&#xc5;" horiz-adv-x="592" 
d="M298 545h-4q-15 -42 -35.5 -100t-42 -119.5t-40.5 -114.5l-5 -15l-15 -45t-19 -56.5t-19 -55t-14 -41.5q-7 -3 -14.5 -4.5t-18.5 -1.5q-16 0 -28.5 8.5t-12.5 27.5q0 9 3 18.5t7 20.5q12 34 29.5 83t38.5 107t44 119t45 119t41 106q8 4 24 8t33 4q20 0 38.5 -6t23.5 -20
q24 -58 51.5 -131.5t55.5 -153t53.5 -154.5t45.5 -136q-7 -9 -18.5 -14.5t-25.5 -5.5q-19 0 -29 8.5t-17 28.5l-55 163l-8 28q-20 61 -41.5 123t-40 115t-30.5 87zM132 162l26 67h279l16 -67h-321zM190 744v0q0 39 28.5 65t77.5 26q50 0 78 -26t28 -65q0 -38 -28 -64
t-78 -26q-49 0 -77.5 26t-28.5 64zM250 744v0q0 -19 13 -30t33 -11t33.5 11t13.5 30q0 20 -13.5 31t-33.5 11t-33 -11t-13 -31z" />
    <glyph glyph-name="AE" unicode="&#xc6;" horiz-adv-x="844" 
d="M457 541h-59l-176 -327l-23 -42l-91 -175q-7 -2 -12.5 -3.5t-16.5 -1.5q-20 0 -30 8.5t-10 23.5q0 9 4 19.5t11 23.5q11 21 34.5 64.5t55 102t67 123t70.5 128t65 116.5q8 5 21 8.5t30 3.5q14 0 26 -3t21 -8.5t12 -13.5zM138 162l27 67h268l16 -67h-311zM404 549h80v-541
q-4 -1 -15.5 -4.5t-22.5 -3.5q-19 0 -30.5 12.5t-11.5 31.5v505zM446 278v68h301q4 -4 7 -13t3 -19q0 -16 -8.5 -26t-22.5 -10h-280zM446 0v68h337q3 -4 6.5 -12.5t3.5 -19.5q0 -16 -8.5 -26t-22.5 -10h-316zM435 539v32q0 11 6 19.5t16.5 13t25.5 4.5h295q4 -4 7 -13t3 -19
q0 -16 -8.5 -26.5t-22.5 -10.5h-322z" />
    <glyph glyph-name="Ccedilla" unicode="&#xc7;" horiz-adv-x="588" 
d="M533 541v0q0 -13 -8.5 -23.5t-19.5 -15.5q-25 18 -60.5 34t-91.5 16q-61 0 -109.5 -28t-77 -83.5t-28.5 -137.5q0 -123 60.5 -185t157.5 -62q52 0 91 15t64 34q10 -4 19 -14.5t9 -24.5q0 -10 -5.5 -19.5t-18.5 -18.5q-23 -16 -63 -28.5t-102 -12.5q-83 0 -150.5 35.5
t-106.5 105.5t-39 175t40.5 176t107 106.5t145.5 35.5q55 0 97 -12t65.5 -30.5t23.5 -37.5zM307 2l50 15q28 -19 40 -45t12 -57q0 -48 -30 -76t-78 -28q-25 0 -38.5 9.5t-13.5 26.5q0 14 6 24h15q36 0 52.5 15.5t16.5 41.5q0 17 -7.5 37t-24.5 37z" />
    <glyph glyph-name="Egrave" unicode="&#xc8;" horiz-adv-x="531" 
d="M89 366h81v-358q-4 -1 -15 -4.5t-22 -3.5q-20 0 -32 12.5t-12 31.5v322zM170 248l-81 1v315q0 20 12 32t32 12q11 0 22 -3t15 -5v-352zM133 278v68h301q3 -4 6 -13t3 -19q0 -16 -8 -26t-23 -10h-279zM133 0v68h337q3 -4 6 -12.5t3 -19.5q0 -16 -8 -26t-23 -10h-315z
M133 539v69h332q3 -4 6 -13t3 -19q0 -16 -8 -26.5t-23 -10.5h-310zM259 680l-88 88q-1 4 -1 7v5q0 16 9.5 26.5t24.5 10.5q21 0 36 -18l84 -101q-1 -16 -9.5 -25t-22.5 -9q-10 0 -17.5 4.5t-15.5 11.5z" />
    <glyph glyph-name="Eacute" unicode="&#xc9;" horiz-adv-x="531" 
d="M89 366h81v-358q-4 -1 -15 -4.5t-22 -3.5q-20 0 -32 12.5t-12 31.5v322zM170 248l-81 1v315q0 20 12 32t32 12q11 0 22 -3t15 -5v-352zM133 278v68h301q3 -4 6 -13t3 -19q0 -16 -8 -26t-23 -10h-279zM133 0v68h337q3 -4 6 -12.5t3 -19.5q0 -16 -8 -26t-23 -10h-315z
M133 539v69h332q3 -4 6 -13t3 -19q0 -16 -8 -26.5t-23 -10.5h-310zM266 724l91 96q22 -1 33.5 -11.5t11.5 -24.5t-5.5 -23t-19.5 -21l-85 -76q-19 2 -29.5 10t-10.5 20q0 10 4 17t10 13z" />
    <glyph glyph-name="Ecircumflex" unicode="&#xca;" horiz-adv-x="531" 
d="M89 366h81v-358q-4 -1 -15 -4.5t-22 -3.5q-20 0 -32 12.5t-12 31.5v322zM170 248l-81 1v315q0 20 12 32t32 12q11 0 22 -3t15 -5v-352zM133 278v68h301q3 -4 6 -13t3 -19q0 -16 -8 -26t-23 -10h-279zM133 0v68h337q3 -4 6 -12.5t3 -19.5q0 -16 -8 -26t-23 -10h-315z
M133 539v69h332q3 -4 6 -13t3 -19q0 -16 -8 -26.5t-23 -10.5h-310zM292 751v0q-16 -17 -39.5 -41.5t-52.5 -50.5q-17 2 -28 10.5t-11 22.5q0 12 7.5 21t18.5 20l59 59q22 22 47 22q28 0 50 -26l82 -93q0 -15 -9.5 -24.5t-24.5 -9.5q-11 0 -21 6t-24 22z" />
    <glyph glyph-name="Edieresis" unicode="&#xcb;" horiz-adv-x="531" 
d="M89 366h81v-358q-4 -1 -15 -4.5t-22 -3.5q-20 0 -32 12.5t-12 31.5v322zM170 248l-81 1v315q0 20 12 32t32 12q11 0 22 -3t15 -5v-352zM133 278v68h301q3 -4 6 -13t3 -19q0 -16 -8 -26t-23 -10h-279zM133 0v68h337q3 -4 6 -12.5t3 -19.5q0 -16 -8 -26t-23 -10h-315z
M133 539v69h332q3 -4 6 -13t3 -19q0 -16 -8 -26.5t-23 -10.5h-310zM254 738v0q0 -19 -14 -33.5t-36 -14.5q-21 0 -34.5 14.5t-13.5 33.5q0 20 13.5 34t34.5 14q22 0 36 -14t14 -34zM427 738v0q0 -19 -14.5 -33.5t-35.5 -14.5q-20 0 -34.5 14.5t-14.5 33.5q0 20 14.5 34
t34.5 14q21 0 35.5 -14t14.5 -34z" />
    <glyph glyph-name="Igrave" unicode="&#xcc;" horiz-adv-x="262" 
d="M90 363h81v-361q-5 -2 -15 -4.5t-22 -2.5q-22 0 -33 9t-11 28v331zM171 296h-81v310q5 2 15.5 4.5t22.5 2.5q22 0 32.5 -8.5t10.5 -28.5v-280zM98 680l-88 88q-1 4 -1 7v5q0 16 9.5 26.5t24.5 10.5q21 0 36 -18l84 -101q-1 -16 -9.5 -25t-22.5 -9q-10 0 -17.5 4.5
t-15.5 11.5z" />
    <glyph glyph-name="Iacute" unicode="&#xcd;" horiz-adv-x="262" 
d="M90 363h81v-361q-5 -2 -15 -4.5t-22 -2.5q-22 0 -33 9t-11 28v331zM171 296h-81v310q5 2 15.5 4.5t22.5 2.5q22 0 32.5 -8.5t10.5 -28.5v-280zM105 724l91 96q22 -1 33.5 -11.5t11.5 -24.5t-5.5 -23t-19.5 -21l-85 -76q-19 2 -29.5 10t-10.5 20q0 10 4 17t10 13z" />
    <glyph glyph-name="Icircumflex" unicode="&#xce;" horiz-adv-x="262" 
d="M90 363h81v-361q-5 -2 -15 -4.5t-22 -2.5q-22 0 -33 9t-11 28v331zM171 296h-81v310q5 2 15.5 4.5t22.5 2.5q22 0 32.5 -8.5t10.5 -28.5v-280zM131 751v0q-16 -17 -39.5 -41.5t-52.5 -50.5q-17 2 -28 10.5t-11 22.5q0 12 7.5 21t18.5 20l59 59q22 22 47 22q28 0 50 -26
l82 -93q0 -15 -9.5 -24.5t-24.5 -9.5q-11 0 -21 6t-24 22z" />
    <glyph glyph-name="Idieresis" unicode="&#xcf;" horiz-adv-x="262" 
d="M90 363h81v-361q-5 -2 -15 -4.5t-22 -2.5q-22 0 -33 9t-11 28v331zM171 296h-81v310q5 2 15.5 4.5t22.5 2.5q22 0 32.5 -8.5t10.5 -28.5v-280zM93 738v0q0 -19 -14 -33.5t-36 -14.5q-21 0 -34.5 14.5t-13.5 33.5q0 20 13.5 34t34.5 14q22 0 36 -14t14 -34zM266 738v0
q0 -19 -14.5 -33.5t-35.5 -14.5q-20 0 -34.5 14.5t-14.5 33.5q0 20 14.5 34t34.5 14q21 0 35.5 -14t14.5 -34z" />
    <glyph glyph-name="Eth" unicode="&#xd0;" horiz-adv-x="682" 
d="M150 338v-68h181q14 0 22.5 10t8.5 26q0 11 -3 19.5t-6 12.5h-203zM213 270v68h-172q-14 0 -22.5 -9.5t-8.5 -26.5q0 -10 3 -18.5t7 -13.5h193zM544 311v0q0 -125 -60 -189.5t-177 -64.5q-29 0 -56.5 2t-51.5 8v476q20 4 44 6t55 2q68 0 123.5 -24.5t89 -77t33.5 -138.5z
M627 311v0q0 103 -41.5 171t-115 102.5t-171.5 34.5q-39 0 -78 -3t-70 -13q-16 -5 -24.5 -13.5t-8.5 -24.5v-514q0 -33 42 -46q36 -11 76.5 -13.5t71.5 -2.5q97 0 168.5 35t111 106.5t39.5 180.5z" />
    <glyph glyph-name="Ntilde" unicode="&#xd1;" horiz-adv-x="660" 
d="M89 539l68 6q4 -31 7 -73t4.5 -86.5t1.5 -84.5v-299q-5 -2 -15.5 -4.5t-21.5 -2.5q-22 0 -33 8.5t-11 27.5v508zM571 69l-69 -6q-10 84 -11.5 171.5t-1.5 169.5v202q6 2 16 4.5t22 2.5q22 0 33 -8.5t11 -27.5v-508zM571 99v4v-92q-9 -7 -23 -12t-31 -5q-24 0 -41 9.5
t-31 34.5l-190 320q-15 27 -33 59.5t-34 62t-25 48.5l-74 -19v87q8 8 22.5 13t31.5 5q24 0 41 -9.5t31 -34.5l191 -320q16 -27 33.5 -59.5t32.5 -62t24 -48.5zM257 785v0q28 0 50.5 -8.5t42 -17t36.5 -8.5q18 0 26.5 11t12.5 27h6q18 0 32 -8.5t14 -29.5q0 -28 -20 -45
t-53 -17q-28 0 -52 9t-44 17.5t-36 8.5q-18 0 -26 -11t-12 -28h-6q-18 0 -32 9t-14 29t10.5 33.5t28 21t36.5 7.5z" />
    <glyph glyph-name="Ograve" unicode="&#xd2;" horiz-adv-x="689" 
d="M634 304v0q0 -104 -38 -174.5t-103.5 -106.5t-148.5 -36q-82 0 -148 36t-104 106.5t-38 174.5t39 174.5t104.5 106.5t146.5 36q82 0 147.5 -36t104 -106.5t38.5 -174.5zM551 304v0q0 119 -56.5 183.5t-150.5 64.5q-93 0 -149.5 -64.5t-56.5 -183.5t56 -183.5t150 -64.5
q95 0 151 64.5t56 183.5zM312 680l-88 88q-1 4 -1 7v5q0 16 9.5 26.5t24.5 10.5q21 0 36 -18l84 -101q-1 -16 -9.5 -25t-22.5 -9q-10 0 -17.5 4.5t-15.5 11.5z" />
    <glyph glyph-name="Oacute" unicode="&#xd3;" horiz-adv-x="689" 
d="M634 304v0q0 -104 -38 -174.5t-103.5 -106.5t-148.5 -36q-82 0 -148 36t-104 106.5t-38 174.5t39 174.5t104.5 106.5t146.5 36q82 0 147.5 -36t104 -106.5t38.5 -174.5zM551 304v0q0 119 -56.5 183.5t-150.5 64.5q-93 0 -149.5 -64.5t-56.5 -183.5t56 -183.5t150 -64.5
q95 0 151 64.5t56 183.5zM319 724l91 96q22 -1 33.5 -11.5t11.5 -24.5t-5.5 -23t-19.5 -21l-85 -76q-19 2 -29.5 10t-10.5 20q0 10 4 17t10 13z" />
    <glyph glyph-name="Ocircumflex" unicode="&#xd4;" horiz-adv-x="689" 
d="M634 304v0q0 -104 -38 -174.5t-103.5 -106.5t-148.5 -36q-82 0 -148 36t-104 106.5t-38 174.5t39 174.5t104.5 106.5t146.5 36q82 0 147.5 -36t104 -106.5t38.5 -174.5zM551 304v0q0 119 -56.5 183.5t-150.5 64.5q-93 0 -149.5 -64.5t-56.5 -183.5t56 -183.5t150 -64.5
q95 0 151 64.5t56 183.5zM345 751v0q-16 -17 -39.5 -41.5t-52.5 -50.5q-17 2 -28 10.5t-11 22.5q0 12 7.5 21t18.5 20l59 59q22 22 47 22q28 0 50 -26l82 -93q0 -15 -9.5 -24.5t-24.5 -9.5q-11 0 -21 6t-24 22z" />
    <glyph glyph-name="Otilde" unicode="&#xd5;" horiz-adv-x="689" 
d="M634 304v0q0 -104 -38 -174.5t-103.5 -106.5t-148.5 -36q-82 0 -148 36t-104 106.5t-38 174.5t39 174.5t104.5 106.5t146.5 36q82 0 147.5 -36t104 -106.5t38.5 -174.5zM551 304v0q0 119 -56.5 183.5t-150.5 64.5q-93 0 -149.5 -64.5t-56.5 -183.5t56 -183.5t150 -64.5
q95 0 151 64.5t56 183.5zM272 785v0q28 0 50.5 -8.5t42 -17t36.5 -8.5q18 0 26.5 11t12.5 27h6q18 0 32 -8.5t14 -29.5q0 -28 -20 -45t-53 -17q-28 0 -52 9t-44 17.5t-36 8.5q-18 0 -26 -11t-12 -28h-6q-18 0 -32 9t-14 29t10.5 33.5t28 21t36.5 7.5z" />
    <glyph glyph-name="Odieresis" unicode="&#xd6;" horiz-adv-x="689" 
d="M634 304v0q0 -104 -38 -174.5t-103.5 -106.5t-148.5 -36q-82 0 -148 36t-104 106.5t-38 174.5t39 174.5t104.5 106.5t146.5 36q82 0 147.5 -36t104 -106.5t38.5 -174.5zM551 304v0q0 119 -56.5 183.5t-150.5 64.5q-93 0 -149.5 -64.5t-56.5 -183.5t56 -183.5t150 -64.5
q95 0 151 64.5t56 183.5zM307 738v0q0 -19 -14 -33.5t-36 -14.5q-21 0 -34.5 14.5t-13.5 33.5q0 20 13.5 34t34.5 14q22 0 36 -14t14 -34zM480 738v0q0 -19 -14.5 -33.5t-35.5 -14.5q-20 0 -34.5 14.5t-14.5 33.5q0 20 14.5 34t34.5 14q21 0 35.5 -14t14.5 -34z" />
    <glyph glyph-name="multiply" unicode="&#xd7;" horiz-adv-x="495" 
d="M284 305l152 -164q-4 -13 -14.5 -24t-26.5 -11q-9 0 -17 4.5t-13 10.5l-128 143l-23 18l-152 162q4 13 14 25t25 12q10 0 18 -5.5t13 -11.5l129 -140zM410 408l-122 -129l-32 -23l-155 -154q-13 5 -27 14.5t-14 24.5q0 9 6.5 17.5t13.5 15.5l131 128l29 19l151 158
q12 -4 24 -13.5t12 -25.5q0 -9 -5 -17t-12 -15z" />
    <glyph glyph-name="Oslash" unicode="&#xd8;" horiz-adv-x="689" 
d="M181 76l-85 -92q-25 5 -36 17.5t-11 23.5q0 13 7 22.5t19 22.5l50 51zM603 541l-56 -61l-46 57l80 89q20 -4 33.5 -14.5t13.5 -24.5q0 -9 -5.5 -19t-19.5 -27zM533 466l-364 -404l-34 67l351 392zM634 304v0q0 -104 -38 -174.5t-103.5 -106.5t-148.5 -36q-82 0 -148 37
t-104 108t-38 172q0 104 39 174.5t104.5 106.5t146.5 36q82 0 147.5 -37t104 -108t38.5 -172zM552 304v0q0 116 -57 182t-151 66q-93 0 -150 -64.5t-57 -183.5q0 -115 56.5 -181.5t150.5 -66.5q95 0 151.5 64.5t56.5 183.5z" />
    <glyph glyph-name="Ugrave" unicode="&#xd9;" horiz-adv-x="649" 
d="M324 -13v0q-75 0 -128 27.5t-80.5 78t-27.5 117.5v82h81v-75q0 -80 44.5 -120.5t110.5 -40.5t110.5 40.5t44.5 120.5v75h82v-82q0 -67 -27.5 -117.5t-80.5 -78t-129 -27.5zM169 251h-81v355q5 2 15.5 4.5t22.5 2.5q22 0 32.5 -8.5t10.5 -28.5v-325zM561 251h-82v355
q5 2 15.5 4.5t22.5 2.5q22 0 33 -8.5t11 -28.5v-325zM292 680l-88 88q-1 4 -1 7v5q0 16 9.5 26.5t24.5 10.5q21 0 36 -18l84 -101q-1 -16 -9.5 -25t-22.5 -9q-10 0 -17.5 4.5t-15.5 11.5z" />
    <glyph glyph-name="Uacute" unicode="&#xda;" horiz-adv-x="649" 
d="M324 -13v0q-75 0 -128 27.5t-80.5 78t-27.5 117.5v82h81v-75q0 -80 44.5 -120.5t110.5 -40.5t110.5 40.5t44.5 120.5v75h82v-82q0 -67 -27.5 -117.5t-80.5 -78t-129 -27.5zM169 251h-81v355q5 2 15.5 4.5t22.5 2.5q22 0 32.5 -8.5t10.5 -28.5v-325zM561 251h-82v355
q5 2 15.5 4.5t22.5 2.5q22 0 33 -8.5t11 -28.5v-325zM299 724l91 96q22 -1 33.5 -11.5t11.5 -24.5t-5.5 -23t-19.5 -21l-85 -76q-19 2 -29.5 10t-10.5 20q0 10 4 17t10 13z" />
    <glyph glyph-name="Ucircumflex" unicode="&#xdb;" horiz-adv-x="649" 
d="M324 -13v0q-75 0 -128 27.5t-80.5 78t-27.5 117.5v82h81v-75q0 -80 44.5 -120.5t110.5 -40.5t110.5 40.5t44.5 120.5v75h82v-82q0 -67 -27.5 -117.5t-80.5 -78t-129 -27.5zM169 251h-81v355q5 2 15.5 4.5t22.5 2.5q22 0 32.5 -8.5t10.5 -28.5v-325zM561 251h-82v355
q5 2 15.5 4.5t22.5 2.5q22 0 33 -8.5t11 -28.5v-325zM325 751v0q-16 -17 -39.5 -41.5t-52.5 -50.5q-17 2 -28 10.5t-11 22.5q0 12 7.5 21t18.5 20l59 59q22 22 47 22q28 0 50 -26l82 -93q0 -15 -9.5 -24.5t-24.5 -9.5q-11 0 -21 6t-24 22z" />
    </font>
</defs>
</svg>
